<?xml version="1.0" standalone="no"?>
<!DOCTYPE svg PUBLIC "-//W3C//DTD SVG 1.1//EN" "http://www.w3.org/Graphics/SVG/1.1/DTD/svg11.dtd" >
<svg xmlns="http://www.w3.org/2000/svg" xmlns:xlink="http://www.w3.org/1999/xlink" version="1.1">
<metadata>
Created by FontForge 20170731 at Sat Aug  5 12:49:33 2017
 By Aleksey,,,
Copyright 2017 The Archivo Project Authors (https://github.com/Omnibus-Type/Archivo)
</metadata>
<defs>
<font id="Archivo-Regular" horiz-adv-x="556" >
  <font-face 
    font-family="Archivo"
    font-weight="400"
    font-stretch="normal"
    units-per-em="1000"
    panose-1="2 11 5 3 2 2 2 2 11 4"
    ascent="800"
    descent="-200"
    x-height="526"
    cap-height="686"
    bbox="-312 -250 1311 1035"
    underline-thickness="50"
    underline-position="-150"
    unicode-range="U+000D-FB02"
  />
<missing-glyph horiz-adv-x="501" 
d="M0 700h500v-700h-500v700zM420 650h-340l170 -255zM220 350l-170 255v-510zM450 605l-170 -255l170 -255v510zM420 50l-170 255l-170 -255h340z" />
    <glyph glyph-name="fi" unicode="fi" horiz-adv-x="500" 
d="M9 0zM86 453h-77v73h77v84q0 52 26 86.5t88 34.5q20 0 40.5 -3.5t34.5 -8.5v-61h-52q-49 0 -49 -48v-84h101v-73h-101v-453h-88v453zM345 723h88v-98h-88v98zM345 526h88v-526h-88v526z" />
    <glyph glyph-name="fl" unicode="fl" horiz-adv-x="500" 
d="M9 0zM86 453h-77v73h77v84q0 52 26 86.5t88 34.5q20 0 40.5 -3.5t34.5 -8.5v-61h-52q-49 0 -49 -48v-84h101v-73h-101v-453h-88v453zM345 723h88v-723h-88v723z" />
    <glyph glyph-name="f_f" unicode="ff" 
d="M452 610v-84h101v-73h-101v-453h-88v453h-190v-453h-88v453h-77v73h77v84q0 52 26 86.5t88 34.5q20 0 40.5 -3.5t34.5 -8.5v-61h-52q-49 0 -49 -48v-84h190v84q0 52 26 86.5t88 34.5q20 0 40.5 -3.5t34.5 -8.5v-61h-52q-49 0 -49 -48z" />
    <glyph glyph-name=".notdef" horiz-adv-x="501" 
d="M0 700h500v-700h-500v700zM420 650h-340l170 -255zM220 350l-170 255v-510zM450 605l-170 -255l170 -255v510zM420 50l-170 255l-170 -255h340z" />
    <glyph glyph-name=".null" horiz-adv-x="0" 
 />
    <glyph glyph-name="nonmarkingreturn" unicode="&#xd;" horiz-adv-x="278" 
 />
    <glyph glyph-name="NULL" horiz-adv-x="0" 
 />
    <glyph glyph-name="NULL" horiz-adv-x="0" 
 />
    <glyph glyph-name="space" unicode=" " horiz-adv-x="278" 
 />
    <glyph glyph-name="exclam" unicode="!" horiz-adv-x="278" 
d="M83 686h114l-26 -515h-62zM90 108h100v-108h-100v108z" />
    <glyph glyph-name="quotedbl" unicode="&#x22;" horiz-adv-x="355" 
d="M46 540v146h100v-146l-26 -132h-48zM208 540v146h100v-146l-26 -132h-48z" />
    <glyph glyph-name="numbersign" unicode="#" 
d="M90 179h-80v76h96l34 155h-85v76h102l47 212h77l-47 -212h153l47 212h77l-47 -212h79v-76h-96l-34 -155h85v-76h-101l-42 -191h-77l42 191h-153l-42 -191h-77zM336 255l34 155h-153l-34 -155h153z" />
    <glyph glyph-name="dollar" unicode="$" 
d="M249 67q-97 5 -145.5 49t-48.5 105q0 15 1 22h87v-10q0 -41 28.5 -64t77.5 -29v177q-57 15 -93 30t-61 44t-25 76q0 63 48 102.5t131 46.5v107h51v-107q80 -5 126 -45.5t46 -97.5l-1 -19h-86v9q0 29 -20.5 51t-64.5 28v-154q57 -14 95 -30t64 -47.5t26 -81.5
q0 -75 -50 -115t-135 -46v-117h-51v116zM249 543q-49 -4 -68.5 -24.5t-19.5 -45.5q0 -28 22 -43.5t66 -28.5v142zM368 165q26 20 26 52q0 33 -24 52t-70 34v-163q42 5 68 25z" />
    <glyph glyph-name="percent" unicode="%" horiz-adv-x="889" 
d="M99 377.5q-38 40.5 -38 139.5q0 100 38 140.5t114 40.5t113.5 -40.5t37.5 -140.5t-37.5 -140t-113.5 -40t-114 40.5zM653 686h80l-496 -686h-79zM272 425q16 29 16 88v8q0 60 -16 89t-59 29t-59 -29t-16 -89v-8q0 -59 16 -88t59 -29t59 29zM564 28.5q-38 40.5 -38 139.5
q0 100 38 140.5t114 40.5t113.5 -40.5t37.5 -140.5t-37.5 -140t-113.5 -40t-114 40.5zM737 77q16 30 16 91v4q0 60 -16 89t-59 29t-59 -29t-16 -89v-4q0 -61 16 -91t59 -30t59 30z" />
    <glyph glyph-name="ampersand" unicode="&#x26;" horiz-adv-x="667" 
d="M167.5 11.5q-58.5 23.5 -91.5 68t-33 104.5q0 65 33 108t89 60v4q-50 24 -78.5 60.5t-28.5 93.5q0 90 68.5 139t184.5 49q74 0 131 -23.5t89 -66t32 -98.5v-18h-88v9q0 61 -44.5 91.5t-120.5 30.5q-71 0 -116.5 -29t-45.5 -89q0 -58 41.5 -89t102.5 -31h61v-73h-59
q-71 0 -115.5 -27.5t-44.5 -94.5q0 -65 46.5 -96t128.5 -31q166 0 166 128v194h173v-74h-85v-117q0 -96 -67.5 -151t-194.5 -55q-75 0 -133.5 23.5z" />
    <glyph glyph-name="quotesingle" unicode="'" horiz-adv-x="191" 
d="M46 540v146h100v-146l-26 -132h-48z" />
    <glyph glyph-name="parenleft" unicode="(" horiz-adv-x="333" 
d="M106.5 55q-46.5 117 -46.5 243q0 120 46.5 233.5t132.5 203.5h59q-65 -96 -105 -214.5t-40 -230.5q0 -113 40.5 -232t104.5 -215h-59q-86 95 -132.5 212z" />
    <glyph glyph-name="parenright" unicode=")" horiz-adv-x="333" 
d="M164.5 63q40.5 122 40.5 237q0 110 -40 225.5t-105 209.5h59q86 -92 132.5 -208t46.5 -239t-46.5 -238t-132.5 -207h-59q64 98 104.5 220z" />
    <glyph glyph-name="asterisk" unicode="*" horiz-adv-x="389" 
d="M168 481l-96 -74l-41 71l112 46l-112 47l41 70l96 -74l-17 119h83l-17 -118l96 73l41 -70l-112 -47l112 -46l-41 -71l-96 74l17 -119h-83z" />
    <glyph glyph-name="plus" unicode="+" horiz-adv-x="584" 
d="M250 213h-194v84h194v214h83v-214h195v-84h-195v-213h-83v213z" />
    <glyph glyph-name="comma" unicode="," horiz-adv-x="278" 
d="M129 0h-40v108h100v-99l-48 -143h-52z" />
    <glyph glyph-name="hyphen" unicode="-" horiz-adv-x="333" 
d="M32 319h270v-98h-270v98z" />
    <glyph glyph-name="period" unicode="." horiz-adv-x="278" 
d="M91 108h100v-108h-100v108z" />
    <glyph glyph-name="slash" unicode="/" horiz-adv-x="278" 
d="M207 735h70l-205 -784h-71z" />
    <glyph glyph-name="zero" unicode="0" 
d="M145.5 19.5q-52.5 31.5 -80.5 109.5t-28 214t28 214t80.5 109.5t132.5 31.5q79 0 132 -32t81 -109.5t28 -213.5t-28 -213.5t-81 -109.5t-132 -32q-80 0 -132.5 31.5zM370 92q33 31 45.5 90t12.5 151v10q0 95 -12.5 156t-45.5 93.5t-92 32.5t-92 -31t-45.5 -90t-12.5 -151
v-10q0 -95 12.5 -156t45.5 -93.5t92 -32.5t92 31z" />
    <glyph glyph-name="one" unicode="1" 
d="M94 73h177v488h-178v52q48 5 115.5 25.5t116.5 47.5h34v-613h164v-73h-429v73z" />
    <glyph glyph-name="two" unicode="2" 
d="M39 29q0 54 28 99.5t67.5 80t105.5 82.5q53 39 86 66.5t55 56.5q34 45 34 92t-29.5 81.5t-102.5 34.5q-75 0 -110 -36.5t-35 -94.5v-41h-88q-1 3 -2 14t-1 26q0 104 68 156t173 52q98 0 158 -49.5t60 -150.5q0 -54 -30 -101t-72.5 -84.5t-110.5 -86.5
q-50 -36 -78.5 -59.5t-49.5 -47.5q-14 -15 -23 -35h368v-84h-471v29z" />
    <glyph glyph-name="three" unicode="3" 
d="M99 43.5q-64 55.5 -64 150.5v8h89v-11q0 -63 39 -96.5t110 -33.5q73 0 114.5 32t41.5 97q0 67 -44.5 94.5t-115.5 27.5h-72v73h75q60 0 101 31t41 89q0 60 -38.5 90t-97.5 30q-63 0 -101 -31.5t-38 -92.5v-9h-89v18q0 56 29 98.5t80.5 66t117.5 23.5q104 0 166 -49
t62 -139q0 -57 -30 -93.5t-84 -60.5v-4q59 -17 94 -60t35 -108q0 -60 -30.5 -104.5t-84.5 -68t-124 -23.5q-118 0 -182 55.5z" />
    <glyph glyph-name="four" unicode="4" 
d="M344 169h-319v74q65 111 111 222t73 233h95q-19 -85 -56 -179.5t-75.5 -170.5t-61.5 -106h233v225q21 54 41 129h47v-354h91v-73h-91v-169h-88v169z" />
    <glyph glyph-name="five" unicode="5" 
d="M101 48.5q-65 60.5 -65 164.5h90q0 -69 42.5 -111t107.5 -42q67 0 107 41.5t40 122.5q0 70 -38 109t-101 39q-45 0 -83.5 -21.5t-59.5 -57.5l-81 13l28 380h390v-84h-317l-16 -209q66 53 157 53q93 0 152.5 -57t59.5 -165q0 -112 -63.5 -174t-174.5 -62q-110 0 -175 60.5
z" />
    <glyph glyph-name="six" unicode="6" 
d="M101.5 64.5q-63.5 76.5 -63.5 258.5q0 138 28 220.5t82.5 118.5t138.5 36q105 0 156.5 -58.5t51.5 -154.5h-90q0 68 -31 104t-92 36q-86 0 -119 -64.5t-35 -194.5q30 36 74.5 55.5t97.5 19.5q106 0 162 -63.5t56 -163.5q0 -68 -29.5 -119.5t-81.5 -79t-117 -27.5
q-125 0 -188.5 76.5zM390.5 105q36.5 44 36.5 113q0 67 -36.5 109t-107.5 42t-108 -43.5t-37 -111.5q0 -67 37 -110t108 -43t107.5 44z" />
    <glyph glyph-name="seven" unicode="7" 
d="M394 602h-357v84h486v-53q-116 -133 -199 -286t-83 -296q0 -27 1 -51h-98q0 278 250 602z" />
    <glyph glyph-name="eight" unicode="8" 
d="M97.5 43.5q-59.5 55.5 -59.5 144.5q0 120 113 164q-46 24 -70.5 64.5t-24.5 90.5q0 54 25.5 97t75 68.5t120.5 25.5t120.5 -25.5t75 -68.5t25.5 -97q0 -50 -24.5 -90.5t-70.5 -64.5q114 -44 114 -164q0 -89 -59.5 -144.5t-180.5 -55.5q-120 0 -179.5 55.5zM374 419
q36 32 36 87t-35.5 87t-97.5 32t-97.5 -32t-35.5 -87t36 -87t97 -32t97 32zM387.5 94.5q38.5 33.5 38.5 93.5q0 59 -38.5 92.5t-110.5 33.5t-110 -33.5t-38 -92.5t38 -93t110 -34t110.5 33.5z" />
    <glyph glyph-name="nine" unicode="9" 
d="M112.5 46.5q-51.5 58.5 -51.5 154.5h90q0 -68 31 -104t92 -36q86 0 119 64.5t35 194.5q-29 -36 -72.5 -55.5t-94.5 -19.5q-109 0 -166 63.5t-57 163.5q0 68 29.5 119.5t81.5 79t117 27.5q125 0 188.5 -76.5t63.5 -258.5q0 -138 -28 -220.5t-82.5 -118.5t-138.5 -36
q-105 0 -156.5 58.5zM381 360.5q37 43.5 37 111.5q0 67 -37 110t-108 43t-107.5 -44t-36.5 -113q0 -67 36.5 -109t107.5 -42t108 43.5z" />
    <glyph glyph-name="colon" unicode=":" horiz-adv-x="278" 
d="M90 526h100v-108h-100v108zM90 108h100v-108h-100v108z" />
    <glyph glyph-name="semicolon" unicode=";" horiz-adv-x="278" 
d="M89 526h100v-108h-100v108zM129 0h-40v108h100v-99l-48 -143h-52z" />
    <glyph glyph-name="less" unicode="&#x3c;" horiz-adv-x="584" 
d="M55 200v107l474 197v-90l-393 -160l393 -160v-90z" />
    <glyph glyph-name="equal" unicode="=" horiz-adv-x="584" 
d="M56 402h473v-84h-473v84zM56 189h473v-83h-473v83z" />
    <glyph glyph-name="greater" unicode="&#x3e;" horiz-adv-x="584" 
d="M55 94l393 160l-393 160v90l474 -197v-107l-474 -196v90z" />
    <glyph glyph-name="question" unicode="?" 
d="M232 236q0 45 22.5 75t66.5 66q42 34 63.5 62.5t21.5 69.5t-26 76.5t-96 35.5q-83 0 -112 -41.5t-29 -93.5q0 -11 0.5 -18t0.5 -9h-89q-1 4 -2 14t-1 21q0 58 26.5 104t80.5 73t132 27q91 0 148.5 -48.5t57.5 -129.5q0 -53 -15.5 -89.5t-37 -59t-55.5 -48.5
q-36 -29 -53 -49.5t-17 -52.5v-41h-87v56zM225 108h100v-108h-100v108z" />
    <glyph glyph-name="at" unicode="@" horiz-adv-x="1015" 
d="M168 -51q-111 102 -111 313q0 153 62 250.5t166.5 141.5t236.5 44q200 0 318.5 -92.5t118.5 -284.5q0 -106 -35.5 -173t-88 -96.5t-106.5 -29.5q-49 0 -74 16t-34 46h-5q-25 -30 -65 -46.5t-88 -16.5q-58 0 -105 29t-47 105q0 92 78.5 126t226.5 34v58q0 40 -22.5 61
t-80.5 21q-52 0 -75.5 -22t-23.5 -54v-11h-80q-1 6 -1 20q0 64 51.5 98.5t136.5 34.5q87 0 131 -35.5t44 -102.5v-258q0 -38 51 -38q60 0 103.5 54.5t43.5 180.5q0 161 -100 239t-273 78q-188 0 -293 -95.5t-105 -282.5q0 -178 88.5 -266.5t271.5 -88.5q40 0 97 9.5t86 22.5
v-64q-33 -11 -88.5 -19t-94.5 -8q-204 0 -315 102zM576.5 118q39.5 31 39.5 87v44q-111 0 -166.5 -18.5t-55.5 -70.5q0 -40 21.5 -56.5t69.5 -16.5q52 0 91.5 31z" />
    <glyph glyph-name="A" unicode="A" horiz-adv-x="667" 
d="M273 686h121l266 -686h-101l-69 183h-318l-67 -183h-98zM459 266l-80 214l-46 124h-5l-45 -122l-80 -216h256z" />
    <glyph glyph-name="B" unicode="B" horiz-adv-x="667" 
d="M79 686h331q86 0 138.5 -46t52.5 -122q0 -58 -32 -100t-82 -58v-4q61 -14 97 -58t36 -116q0 -92 -57.5 -137t-152.5 -45h-331v686zM391 393q51 0 82 29.5t31 76.5q0 52 -28 78t-77 26h-225v-210h217zM408 83q115 0 115 111q0 116 -122 116h-227v-227h234z" />
    <glyph glyph-name="C" unicode="C" horiz-adv-x="722" 
d="M131 76.5q-84 88.5 -84 266.5t84 266.5t250 88.5q134 0 214.5 -66.5t80.5 -193.5h-97q0 88 -52.5 133.5t-145.5 45.5q-121 0 -178 -64t-58 -208v-2q0 -145 57 -209.5t179 -64.5q95 0 148.5 45t53.5 132h93q0 -128 -80 -193t-215 -65q-166 0 -250 88.5z" />
    <glyph glyph-name="D" unicode="D" horiz-adv-x="722" 
d="M79 686h254q165 0 254 -84.5t89 -258.5t-89 -258.5t-254 -84.5h-254v686zM333 83q119 0 181.5 60t63.5 198v2q0 139 -62.5 199.5t-182.5 60.5h-159v-520h159z" />
    <glyph glyph-name="E" unicode="E" horiz-adv-x="667" 
d="M79 686h528v-83h-433v-211h389v-83h-389v-226h439v-83h-534v686z" />
    <glyph glyph-name="F" unicode="F" horiz-adv-x="611" 
d="M79 686h486v-83h-391v-218h355v-83h-355v-302h-95v686z" />
    <glyph glyph-name="G" unicode="G" horiz-adv-x="778" 
d="M370 357h337v-357h-74l-7 76q-78 -88 -239 -88q-168 0 -254 88.5t-86 266.5q0 355 346 355q142 0 228 -63t86 -183h-97q0 83 -58 124t-159 41q-125 0 -186 -64t-61 -210v-2q1 -145 60.5 -208.5t180.5 -63.5q116 0 170.5 48t54.5 147v10h-242v83z" />
    <glyph glyph-name="H" unicode="H" horiz-adv-x="722" 
d="M79 686h95v-294h374v294h95v-686h-95v309h-374v-309h-95v686z" />
    <glyph glyph-name="I" unicode="I" horiz-adv-x="278" 
d="M92 686h95v-686h-95v686z" />
    <glyph glyph-name="J" unicode="J" horiz-adv-x="500" 
d="M80 38q-51 50 -51 145v25h95v-30q0 -54 26 -81.5t75 -27.5q50 0 76 31.5t26 93.5v492h95v-487q0 -105 -51 -158t-146 -53q-94 0 -145 50z" />
    <glyph glyph-name="K" unicode="K" horiz-adv-x="667" 
d="M79 686h95v-378l363 378h118l-261 -274l270 -412h-113l-223 344l-154 -144v-200h-95v686z" />
    <glyph glyph-name="L" unicode="L" 
d="M79 686h95v-603h352v-83h-447v686z" />
    <glyph glyph-name="M" unicode="M" horiz-adv-x="833" 
d="M79 686h141l164 -468q9 -26 18.5 -59.5t12.5 -43.5h4q3 11 12.5 46t17.5 57l165 468h140v-686h-95v453l2 128h-7q-1 -7 -6 -28.5t-11 -37.5l-186 -515h-79l-183 515q-5 14 -10.5 36.5t-6.5 29.5h-6l2 -128v-453h-89v686z" />
    <glyph glyph-name="N" unicode="N" horiz-adv-x="722" 
d="M79 686h85l362 -478l24 -32l4 1v47v462h89v-686h-81l-364 484l-26 35l-4 -1v-47v-471h-89v686z" />
    <glyph glyph-name="O" unicode="O" horiz-adv-x="778" 
d="M136.5 77.5q-89.5 89.5 -89.5 265.5t89.5 265.5t252.5 89.5q164 0 253.5 -89.5t89.5 -265.5q0 -175 -89.5 -265t-253.5 -90q-163 0 -252.5 89.5zM571 133.5q63 64.5 63 205.5v4q-1 143 -64 208.5t-181 65.5q-117 0 -180 -65.5t-64 -208.5v-4q0 -141 63 -205.5t181 -64.5
q119 0 182 64.5z" />
    <glyph glyph-name="P" unicode="P" horiz-adv-x="667" 
d="M79 686h334q103 0 158 -57t55 -152q0 -97 -57.5 -155.5t-155.5 -58.5h-239v-263h-95v686zM408 346q56 0 89 35t33 95q0 61 -31 94t-91 33h-234v-257h234z" />
    <glyph glyph-name="Q" unicode="Q" horiz-adv-x="778" 
d="M436 -10q-30 -2 -47 -2q-163 0 -252.5 89.5t-89.5 265.5t89.5 265.5t252.5 89.5q164 0 253.5 -89.5t89.5 -265.5q0 -128 -48 -210.5t-139 -118.5l148 -144h-134zM571 133.5q63 64.5 63 205.5v4q-1 143 -64 208.5t-181 65.5q-117 0 -180 -65.5t-64 -208.5v-4
q0 -141 63 -205.5t181 -64.5q119 0 182 64.5z" />
    <glyph glyph-name="R" unicode="R" horiz-adv-x="722" 
d="M79 686h357q103 0 158 -53t55 -142q0 -70 -33.5 -121t-92.5 -73l158 -297h-106l-149 283h-252v-283h-95v686zM431 366q56 0 89 33t33 91q0 54 -31 83.5t-91 29.5h-257v-237h257z" />
    <glyph glyph-name="S" unicode="S" horiz-adv-x="667" 
d="M128 38q-79 50 -79 156l1 20h94q0 -1 -1 -7t-1 -14q0 -61 50.5 -92.5t134.5 -31.5q94 0 144 29.5t50 84.5q0 37 -26 61.5t-65.5 38.5t-106.5 31q-83 21 -134 40.5t-87 58t-36 101.5q0 90 75 137t192 47t190 -47.5t73 -145.5v-12h-93v15q0 51 -46.5 80t-120.5 29
q-79 0 -126.5 -24t-47.5 -72q0 -35 25.5 -57t63 -35.5t104.5 -30.5q83 -21 135.5 -41t89 -58.5t36.5 -100.5q0 -110 -76.5 -160t-207.5 -50q-125 0 -204 50z" />
    <glyph glyph-name="T" unicode="T" horiz-adv-x="611" 
d="M258 603h-236v83h567v-83h-236v-603h-95v603z" />
    <glyph glyph-name="U" unicode="U" horiz-adv-x="722" 
d="M152 53q-73 65 -73 200v433h95v-438q0 -88 48.5 -133.5t137.5 -45.5q90 0 139 46t49 133v438h95v-433q0 -135 -73 -200t-210 -65q-135 0 -208 65z" />
    <glyph glyph-name="V" unicode="V" horiz-adv-x="667" 
d="M16 686h103l181 -499l34 -92h5l34 94l180 497h98l-255 -686h-125z" />
    <glyph glyph-name="W" unicode="W" horiz-adv-x="944" 
d="M11 686h100l138 -484q7 -26 15 -59t11 -46h5l20 105l106 484h136l110 -484l21 -105h5q3 13 11.5 46t15.5 59l133 484h95l-198 -686h-131l-108 481q-8 36 -14.5 68.5t-8.5 43.5h-5q-2 -12 -7.5 -45.5t-12.5 -66.5l-108 -481h-131z" />
    <glyph glyph-name="X" unicode="X" horiz-adv-x="667" 
d="M275 359l-246 327h118l182 -245h8l184 245h114l-244 -326l271 -360h-117l-209 281h-8l-208 -281h-115z" />
    <glyph glyph-name="Y" unicode="Y" horiz-adv-x="667" 
d="M287 284l-271 402h115l204 -314h5l203 314h109l-270 -402v-284h-95v284z" />
    <glyph glyph-name="Z" unicode="Z" horiz-adv-x="611" 
d="M23 49l412 554h-386v83h531v-49l-413 -554h422v-83h-566v49z" />
    <glyph glyph-name="bracketleft" unicode="[" horiz-adv-x="278" 
d="M63 735h188v-65h-109v-766h109v-65h-188v896z" />
    <glyph glyph-name="backslash" unicode="\" horiz-adv-x="278" 
d="M1 735h70l206 -784h-71z" />
    <glyph glyph-name="bracketright" unicode="]" horiz-adv-x="278" 
d="M27 -96h109v766h-109v65h188v-896h-188v65z" />
    <glyph glyph-name="asciicircum" unicode="^" horiz-adv-x="469" 
d="M181 686h107l157 -392h-90l-121 315l-119 -315h-90z" />
    <glyph glyph-name="underscore" unicode="_" 
d="M0 -71h556v-53h-556v53z" />
    <glyph glyph-name="grave" unicode="`" horiz-adv-x="333" 
d="M75 720l1 3h96l86 -132h-75z" />
    <glyph glyph-name="a" unicode="a" 
d="M89 20q-53 32 -53 116q0 101 90 138.5t260 37.5v58q0 46 -26 70.5t-94 24.5q-64 0 -91.5 -24t-27.5 -59v-12h-85q-1 6 -1 22q0 70 58 108t155 38q98 0 149 -41t51 -116v-285q0 -18 10 -26.5t25 -8.5h40v-57q-26 -12 -68 -12q-34 0 -57 20.5t-31 54.5h-7
q-27 -37 -73.5 -58t-102.5 -21q-68 0 -121 32zM307 77q35 16 57 47.5t22 76.5v38q-129 0 -193.5 -20.5t-64.5 -77.5q0 -43 26.5 -61.5t78.5 -18.5q39 0 74 16z" />
    <glyph glyph-name="b" unicode="b" 
d="M218.5 9q-42.5 21 -68.5 62h-6l-11 -71h-66v723h88v-257h6q26 38 65 55t95 17q93 0 146.5 -68.5t53.5 -206.5q0 -141 -54 -208t-154 -67q-52 0 -94.5 21zM372 80q30 19 44 62t14 117v4q0 75 -14 119t-44.5 63.5t-80.5 19.5q-70 0 -103 -51t-33 -151v-4q0 -98 32.5 -148
t103.5 -50q51 0 81 19z" />
    <glyph glyph-name="c" unicode="c" horiz-adv-x="500" 
d="M91 54.5q-56 66.5 -56 208.5q0 141 56.5 208t175.5 67q108 0 158 -52t50 -155h-90q0 71 -25.5 102.5t-92.5 31.5q-73 0 -107 -47.5t-34 -154.5v-4q0 -106 33 -152t108 -46q66 0 94.5 33.5t28.5 100.5h85q0 -90 -51 -148.5t-157 -58.5q-120 0 -176 66.5z" />
    <glyph glyph-name="d" unicode="d" 
d="M89 55q-54 67 -54 208q0 138 53.5 206.5t146.5 68.5q56 0 95 -17t65 -55h6v257h88v-723h-66l-11 71h-6q-26 -41 -68.5 -62t-94.5 -21q-100 0 -154 67zM368.5 111q32.5 50 32.5 148v4q0 100 -33 151t-103 51q-50 0 -80.5 -19.5t-44.5 -63.5t-14 -119v-4q0 -74 14 -117
t44 -62t81 -19q71 0 103.5 50z" />
    <glyph glyph-name="e" unicode="e" 
d="M101 55q-62 67 -62 208t62 208t189 67q114 0 170.5 -60.5t56.5 -194.5v-44h-387q5 -91 43.5 -134.5t116.5 -43.5q63 0 102 29t39 89h86q0 -92 -63.5 -141.5t-163.5 -49.5q-127 0 -189 67zM425 312q0 153 -135 153q-75 0 -112.5 -36t-45.5 -117h293z" />
    <glyph glyph-name="f" unicode="f" horiz-adv-x="278" 
d="M86 453h-77v73h77v84q0 52 26 86.5t88 34.5q20 0 40.5 -3.5t34.5 -8.5v-61h-52q-49 0 -49 -48v-84h101v-73h-101v-453h-88v453z" />
    <glyph glyph-name="g" unicode="g" 
d="M60.5 -152.5q-42.5 29.5 -42.5 97.5q0 82 85 112q-24 13 -39.5 33.5t-15.5 47.5q0 39 27.5 59t60.5 28q-33 24 -52 59t-19 77q0 84 57 130.5t156 46.5q55 0 100 -18q65 31 76 91h84q0 -47 -27.5 -81t-74.5 -45q56 -50 56 -124q0 -84 -57.5 -130.5t-156.5 -46.5h-84
q-27 0 -41.5 -12t-14.5 -31t14.5 -31t41.5 -12h211q62 0 98 -37.5t36 -90.5q0 -38 -17 -73t-54.5 -57t-94.5 -22h-212q-58 0 -100.5 29.5zM373 280.5q32 28.5 32 80.5t-32 80.5t-94 28.5t-94 -28.5t-32 -80.5t32 -80.5t94 -28.5t94 28.5zM375 -111q33 0 55 18t22 48
t-17.5 47.5t-46.5 17.5h-219q-29 0 -46 -17.5t-17 -47.5t17 -48t46 -18h206z" />
    <glyph glyph-name="h" unicode="h" 
d="M67 723h88v-256h7q55 71 166 71q164 0 164 -179v-359h-88v353q0 63 -28 87.5t-81 24.5q-38 0 -70 -18.5t-51 -53.5t-19 -82v-311h-88v723z" />
    <glyph glyph-name="i" unicode="i" horiz-adv-x="222" 
d="M67 723h88v-98h-88v98zM67 526h88v-526h-88v526z" />
    <glyph glyph-name="j" unicode="j" horiz-adv-x="222" 
d="M67 723h88v-98h-88v98zM-24 -170v57h44q47 0 47 48v591h88v-587q0 -52 -25.5 -86.5t-84.5 -34.5q-35 0 -69 12z" />
    <glyph glyph-name="k" unicode="k" horiz-adv-x="500" 
d="M67 723h88v-455l223 258h109l-181 -207l191 -319h-102l-144 256l-96 -91v-165h-88v723z" />
    <glyph glyph-name="l" unicode="l" horiz-adv-x="222" 
d="M67 723h88v-723h-88v723z" />
    <glyph glyph-name="m" unicode="m" horiz-adv-x="833" 
d="M67 526h67l10 -71h7q54 83 158 83q102 0 136 -83h6q27 40 70.5 61.5t92.5 21.5q155 0 155 -159v-379h-88v363q0 57 -25 79.5t-69 22.5q-53 0 -89 -42t-36 -112v-311h-88v363q0 57 -24 79.5t-68 22.5q-34 0 -63 -18.5t-46.5 -53.5t-17.5 -82v-311h-88v526z" />
    <glyph glyph-name="n" unicode="n" 
d="M67 526h67l10 -71h7q58 83 177 83q79 0 121.5 -42.5t42.5 -136.5v-359h-88v353q0 63 -28 87.5t-81 24.5q-38 0 -70 -18.5t-51 -53.5t-19 -82v-311h-88v526z" />
    <glyph glyph-name="o" unicode="o" 
d="M96 55.5q-61 67.5 -61 207.5t61 207.5t182 67.5t182 -67.5t61 -207.5t-61 -207.5t-182 -67.5t-182 67.5zM394 107.5q36 46.5 36 151.5v8q0 105 -36 151.5t-116 46.5t-116 -46.5t-36 -151.5v-8q0 -105 36 -151.5t116 -46.5t116 46.5z" />
    <glyph glyph-name="p" unicode="p" 
d="M67 526h66l11 -71h6q26 41 68.5 62t94.5 21q100 0 154 -67t54 -208q0 -138 -53.5 -206.5t-146.5 -68.5q-56 0 -95 17t-65 55h-6v-233h-88v699zM372 80q30 19 44 62t14 117v4q0 75 -14 119t-44.5 63.5t-80.5 19.5q-70 0 -103 -51t-33 -151v-4q0 -98 32.5 -148t103.5 -50
q51 0 81 19z" />
    <glyph glyph-name="q" unicode="q" 
d="M401 60h-6q-26 -38 -65 -55t-95 -17q-93 0 -146.5 68.5t-53.5 206.5q0 141 54 208t154 67q52 0 94.5 -21t68.5 -62h6l11 71h66v-699h-88v233zM368.5 111q32.5 50 32.5 148v4q0 100 -33 151t-103 51q-50 0 -80.5 -19.5t-44.5 -63.5t-14 -119v-4q0 -74 14 -117t44 -62
t81 -19q71 0 103.5 50z" />
    <glyph glyph-name="r" unicode="r" horiz-adv-x="333" 
d="M67 526h67l10 -79h6q15 39 45 65t79 26q17 0 30.5 -3.5t16.5 -4.5v-85h-37q-56 0 -92.5 -32.5t-36.5 -101.5v-311h-88v526z" />
    <glyph glyph-name="s" unicode="s" horiz-adv-x="500" 
d="M125.5 9.5q-48.5 21.5 -71.5 56.5t-23 76q0 12 0.5 16.5t0.5 5.5h87v-10q0 -47 37 -70.5t96 -23.5q51 0 84.5 20.5t33.5 57.5q0 29 -19 47.5t-47 29t-76 22.5q-58 15 -94.5 30t-62 44.5t-25.5 76.5q0 69 56.5 109.5t152.5 40.5q60 0 104 -19.5t66.5 -52t22.5 -72.5
l-1 -19h-86v9q0 35 -27.5 58t-88.5 23q-60 0 -84 -21.5t-24 -49.5q0 -23 17 -38t42 -24t70 -20q62 -16 101 -31.5t66.5 -47t27.5 -83.5q0 -81 -58.5 -121.5t-155.5 -40.5q-73 0 -121.5 21.5z" />
    <glyph glyph-name="t" unicode="t" horiz-adv-x="278" 
d="M107 21q-25 32 -25 79v353h-64v73h65l19 146h68v-146h89v-73h-89v-345q0 -47 44 -47h45v-58q-13 -6 -34 -10t-39 -4q-54 0 -79 32z" />
    <glyph glyph-name="u" unicode="u" 
d="M106.5 30.5q-42.5 42.5 -42.5 136.5v359h88v-353q0 -63 28 -87.5t81 -24.5q38 0 70 18.5t51 53.5t19 82v311h88v-526h-67l-10 71h-7q-58 -83 -177 -83q-79 0 -121.5 42.5z" />
    <glyph glyph-name="v" unicode="v" horiz-adv-x="500" 
d="M13 526h93l93 -263q13 -37 30 -92t22 -73h5q5 17 21 70.5t30 94.5l92 263h88l-193 -526h-88z" />
    <glyph glyph-name="w" unicode="w" horiz-adv-x="722" 
d="M5 526h91l81 -298q8 -31 17.5 -70t13.5 -54h5l26 124l69 298h107l73 -298q7 -31 15.5 -70t11.5 -54h5q3 15 12 53t18 71l80 298h86l-158 -526h-96l-76 314l-24 108h-4q-3 -13 -9.5 -46t-13.5 -62l-75 -314h-97z" />
    <glyph glyph-name="x" unicode="x" horiz-adv-x="500" 
d="M202 269l-186 257h107l125 -187h6l128 187h102l-186 -255l195 -271h-106l-135 202h-6l-137 -202h-102z" />
    <glyph glyph-name="y" unicode="y" horiz-adv-x="500" 
d="M47 -174v57h35q102 0 134 117l-203 526h93l98 -263q14 -37 32.5 -92.5t24.5 -72.5h5q5 17 18.5 64t30.5 101l84 263h88l-173 -499q-35 -100 -79.5 -154.5t-117.5 -54.5q-44 0 -70 8z" />
    <glyph glyph-name="z" unicode="z" horiz-adv-x="500" 
d="M24 47l305 406h-284v73h413v-46l-306 -407h323v-73h-451v47z" />
    <glyph glyph-name="braceleft" unicode="{" horiz-adv-x="334" 
d="M168 -128q-45 31 -45 117v197q0 31 -24.5 45.5t-57.5 14.5v84q33 0 57.5 14.5t24.5 45.5v197q0 86 45 117t124 31v-57q-37 0 -63 -15.5t-27 -55.5l-7 -206q-2 -54 -22.5 -81t-66.5 -27v-10q46 0 66.5 -27t22.5 -81l7 -206q1 -40 27 -55.5t63 -15.5v-57q-79 0 -124 31z
" />
    <glyph glyph-name="bar" unicode="|" horiz-adv-x="260" 
d="M91 723h78v-896h-78v896z" />
    <glyph glyph-name="braceright" unicode="}" horiz-adv-x="334" 
d="M42 -102q37 0 63 15.5t27 55.5l7 206q2 54 22.5 81t66.5 27v10q-46 0 -66.5 27t-22.5 81l-7 206q-1 40 -27 55.5t-63 15.5v57q79 0 124 -31t45 -117v-197q0 -31 24.5 -45.5t57.5 -14.5v-84q-33 0 -57.5 -14.5t-24.5 -45.5v-197q0 -86 -45 -117t-124 -31v57z" />
    <glyph glyph-name="asciitilde" unicode="~" horiz-adv-x="584" 
d="M41 304q0 3 18.5 22t51 35t75.5 16q25 0 47.5 -7.5t57.5 -22.5q32 -15 56.5 -23t50.5 -8q38 0 70 16t53.5 35.5t21.5 21.5v-93q0 -3 -18.5 -22t-51 -35t-75.5 -16q-25 0 -47.5 7.5t-57.5 22.5q-32 15 -56.5 23t-50.5 8q-38 0 -70 -16t-53.5 -35.5t-21.5 -21.5v93z" />
    <glyph glyph-name="uni00A0" unicode="&#xa0;" horiz-adv-x="278" 
 />
    <glyph glyph-name="exclamdown" unicode="&#xa1;" horiz-adv-x="333" 
d="M117 526h100v-108h-100v108zM136 355h62l26 -515h-114z" />
    <glyph glyph-name="cent" unicode="&#xa2;" 
d="M258 67q-108 7 -158 73.5t-50 201.5q0 134 51 201t157 73v107h51v-107q93 -7 137 -58.5t44 -147.5h-90q0 63 -20 94.5t-71 37.5v-401q51 7 73.5 40t22.5 93h85q0 -84 -44.5 -141t-136.5 -65v-117h-51v116zM258 543q-61 -7 -89 -54t-28 -143v-8q0 -97 27.5 -143.5
t89.5 -53.5v402z" />
    <glyph glyph-name="sterling" unicode="&#xa3;" 
d="M35 79h76v225h-90v72h90v123q0 98 52 148.5t148 50.5q97 0 148.5 -45.5t51.5 -148.5v-13h-88v16q0 60 -29 89t-83 29q-57 0 -84.5 -26.5t-27.5 -83.5v-139h165v-72h-166l-12 -225h325v-79h-476v79z" />
    <glyph glyph-name="currency" unicode="&#xa4;" 
d="M29 144l54 56q-25 31 -37.5 70t-12.5 81q0 43 12.5 82.5t37.5 67.5l-55 54l48 48l57 -56q28 24 66.5 37.5t78.5 13.5t78.5 -13.5t66.5 -37.5l57 56l48 -48l-55 -54q25 -28 37.5 -67.5t12.5 -82.5q0 -42 -12.5 -81t-37.5 -70l54 -56l-45 -45l-55 58q-29 -27 -68 -41
t-81 -14t-81 14t-68 41l-55 -58zM359.5 204.5q37.5 23.5 59.5 62.5t22 84q0 44 -22 82.5t-59.5 62t-81.5 23.5t-81.5 -23.5t-59.5 -62t-22 -82.5q0 -45 22 -84t59.5 -62.5t81.5 -23.5t81.5 23.5z" />
    <glyph glyph-name="yen" unicode="&#xa5;" 
d="M239 169h-199v65h199v70h-199v65h174q-6 7 -24.5 33t-34.5 51l-148 233h103l118 -191q22 -36 38 -68t20 -41h4q5 10 21.5 43.5t34.5 64.5l109 192h93l-140 -233q-17 -28 -34 -52.5t-22 -31.5h164v-65h-189v-70h189v-65h-189v-169h-88v169z" />
    <glyph glyph-name="brokenbar" unicode="&#xa6;" horiz-adv-x="260" 
d="M91 723h78v-366h-78v366zM91 193h78v-366h-78v366z" />
    <glyph glyph-name="section" unicode="&#xa7;" 
d="M154 -162.5q-48 19.5 -72.5 52t-24.5 72.5l1 19h92v-9q0 -35 30.5 -58.5t99.5 -23.5q73 0 99 25.5t26 56.5q0 29 -20 49t-50 34t-83 33q-68 25 -109 45t-70.5 55.5t-29.5 88.5q0 45 28 79.5t70 54.5q-40 24 -62 57t-22 80q0 70 60.5 110t169.5 40q67 0 115 -19.5
t72.5 -52t24.5 -72.5l-1 -19h-92v9q0 35 -30.5 58.5t-99.5 23.5q-73 0 -99 -25.5t-26 -57.5q0 -29 20 -49t50.5 -34t82.5 -32q66 -23 108 -44t71.5 -56.5t29.5 -88.5q0 -45 -28 -79.5t-70 -55.5q39 -25 61.5 -57.5t22.5 -78.5q0 -70 -60.5 -110t-169.5 -40q-67 0 -115 19.5z
M405.5 170q19.5 21 19.5 48q0 38 -23 64t-57.5 42t-93.5 37l-48 18q-34 -12 -53 -33t-19 -48q0 -37 22.5 -63t56 -42t92.5 -38q27 -10 50 -19q34 13 53.5 34z" />
    <glyph glyph-name="dieresis" unicode="&#xa8;" horiz-adv-x="333" 
d="M30 723h87v-95h-87v95zM217 723h87v-95h-87v95z" />
    <glyph glyph-name="copyright" unicode="&#xa9;" horiz-adv-x="737" 
d="M190.5 36q-81.5 48 -129.5 129.5t-48 177.5t48 177.5t129.5 129.5t177.5 48t177.5 -48t129.5 -129.5t48 -177.5t-48 -177.5t-129.5 -129.5t-177.5 -48t-177.5 48zM521.5 76.5q70.5 41.5 111.5 112t41 154.5t-41 154.5t-111.5 112t-153.5 41.5t-153.5 -41.5t-111.5 -112
t-41 -154.5t41 -154.5t111.5 -112t153.5 -41.5t153.5 41.5zM234 184.5q-43 50.5 -43 158.5t43 159t134 51q82 0 120 -40t38 -118h-68q0 54 -19.5 78t-70.5 24q-56 0 -82 -36t-26 -118t25.5 -118t82.5 -36q50 0 72 25.5t22 77.5h64q0 -69 -39 -113.5t-119 -44.5
q-91 0 -134 50.5z" />
    <glyph glyph-name="ordfeminine" unicode="&#xaa;" horiz-adv-x="370" 
d="M371 415v-41q-14 -9 -47 -9q-25 0 -43 11.5t-24 30.5h-2q-19 -21 -48.5 -33t-64.5 -12q-46 0 -82.5 21.5t-36.5 79.5q0 70 59 95.5t170 25.5v43q0 27 -16 41.5t-55 14.5q-38 0 -55 -16t-17 -39v-10h-69v17q0 48 39.5 74t104.5 26q68 0 102.5 -26t34.5 -74v-198
q0 -11 6.5 -16.5t15.5 -5.5h28zM252 531q-77 0 -117 -13.5t-40 -51.5q0 -28 15.5 -39.5t47.5 -11.5q37 0 65.5 22.5t28.5 62.5v31z" />
    <glyph glyph-name="guillemotleft" unicode="&#xab;" 
d="M64 326l157 200h71l-129 -200l129 -200h-71zM259 326l157 200h71l-129 -200l129 -200h-71z" />
    <glyph glyph-name="logicalnot" unicode="&#xac;" horiz-adv-x="584" 
d="M445 360h-389v93h473v-256h-84v163z" />
    <glyph glyph-name="uni00AD" unicode="&#xad;" horiz-adv-x="333" 
d="M32 319h270v-98h-270v98z" />
    <glyph glyph-name="registered" unicode="&#xae;" horiz-adv-x="737" 
d="M190.5 36q-81.5 48 -129.5 129.5t-48 177.5t48 177.5t129.5 129.5t177.5 48t177.5 -48t129.5 -129.5t48 -177.5t-48 -177.5t-129.5 -129.5t-177.5 -48t-177.5 48zM521.5 76.5q70.5 41.5 111.5 112t41 154.5t-41 154.5t-111.5 112t-153.5 41.5t-153.5 -41.5t-111.5 -112
t-41 -154.5t41 -154.5t111.5 -112t153.5 -41.5t153.5 41.5zM224 549h190q61 0 93.5 -33.5t32.5 -89.5q0 -42 -18.5 -72.5t-53.5 -44.5l87 -171h-72l-80 160h-111v-160h-68v411zM404 354q31 0 49 19t18 53q0 33 -17.5 50t-49.5 17h-112v-139h112z" />
    <glyph glyph-name="macron" unicode="&#xaf;" horiz-adv-x="333" 
d="M14 699h305v-72h-305v72z" />
    <glyph glyph-name="degree" unicode="&#xb0;" horiz-adv-x="400" 
d="M130 446q-31 18 -49 49t-18 68t18 68t49 49t68 18t68 -18t49 -49t18 -68t-18 -68t-49 -49t-68 -18t-68 18zM255.5 505q23.5 24 23.5 58t-23.5 57.5t-57.5 23.5t-58 -23.5t-24 -57.5t24 -58t58 -24t57.5 24z" />
    <glyph glyph-name="plusminus" unicode="&#xb1;" horiz-adv-x="549" 
d="M233 340h-194v84h194v214h83v-214h195v-84h-195v-213h-83v213zM38 83h473v-83h-473v83z" />
    <glyph glyph-name="uni00B2" unicode="&#xb2;" horiz-adv-x="333" 
d="M41 359q0 29 14 52.5t34 41t55 43.5l28 21t38 36q17 22 17 42q0 19 -12.5 33.5t-42.5 14.5q-33 0 -48 -15.5t-15 -40.5v-25h-62q0 2 -1 9t-1 15q0 57 36.5 85t92.5 28q53 0 85 -26t32 -79q0 -32 -15 -57t-36 -43t-58 -45q-5 -4 -21.5 -16t-27 -22.5t-14.5 -19.5h174v-56
h-252v24z" />
    <glyph glyph-name="uni00B3" unicode="&#xb3;" horiz-adv-x="333" 
d="M72.5 358q-34.5 30 -34.5 82v13h63v-15q0 -27 16.5 -41t47.5 -14t49 13.5t18 41.5q0 50 -69 50h-30v56h32q26 0 43.5 12.5t17.5 36.5q0 25 -16.5 37.5t-41.5 12.5q-27 0 -43.5 -13t-16.5 -39v-14h-63v19q0 46 34 74t88 28q56 0 89 -27t33 -75q0 -47 -51 -75v-2
q59 -26 59 -85q0 -48 -35.5 -77t-92.5 -29q-62 0 -96.5 30z" />
    <glyph glyph-name="acute" unicode="&#xb4;" horiz-adv-x="333" 
d="M161 723h96l1 -3l-108 -129h-75z" />
    <glyph glyph-name="uni00B5" unicode="&#xb5;" horiz-adv-x="576" 
d="M77 0zM77 526h88v-353q0 -63 28 -87.5t81 -24.5q38 0 70 18.5t51 53.5t19 82v311h88v-526h-67l-10 71h-7q-28 -42 -69 -62.5t-91 -20.5q-54 0 -93 24v-63v-122h-88v699z" />
    <glyph glyph-name="paragraph" unicode="&#xb6;" horiz-adv-x="537" 
d="M233 253q-57 0 -106 24t-79 73t-30 118q0 113 66.5 165.5t177.5 52.5h266v-61h-61v-793h-84v793h-66v-793h-84v421z" />
    <glyph glyph-name="periodcentered" unicode="&#xb7;" horiz-adv-x="333" 
d="M116 411h100v-108h-100v108z" />
    <glyph glyph-name="cedilla" unicode="&#xb8;" horiz-adv-x="333" 
d="M52 -174v49h100q20 0 30.5 5.5t10.5 18.5q0 12 -8.5 18t-30.5 6h-51l16 88h62l-8 -47q92 -6 92 -65q0 -45 -36 -63t-82 -18q-52 0 -95 8z" />
    <glyph glyph-name="uni00B9" unicode="&#xb9;" horiz-adv-x="333" 
d="M51 384h88v225h-88v40q27 3 62 13.5t59 23.5h30v-302h80v-56h-231v56z" />
    <glyph glyph-name="ordmasculine" unicode="&#xba;" horiz-adv-x="365" 
d="M22 548q0 187 161 187q160 0 160 -187t-160 -187q-161 0 -161 187zM251 445.5q21 31.5 21 100.5q0 71 -21.5 103.5t-67.5 32.5q-47 0 -67.5 -30.5t-20.5 -98.5v-5q0 -70 20.5 -102t67.5 -32t68 31.5z" />
    <glyph glyph-name="guillemotright" unicode="&#xbb;" 
d="M193 326l-129 200h71l157 -200l-157 -200h-71zM388 326l-129 200h71l157 -200l-157 -200h-71z" />
    <glyph glyph-name="onequarter" unicode="&#xbc;" horiz-adv-x="834" 
d="M654 698h72l-546 -710h-72zM51 384h88v225h-88v40q27 3 62 13.5t59 23.5h30v-302h80v-56h-231v56zM669 82h-158v51q59 110 86 231h66q-13 -58 -39.5 -122.5t-49.5 -103.5h95v96q12 34 22 80h41v-176h45v-56h-45v-82h-63v82z" />
    <glyph glyph-name="onehalf" unicode="&#xbd;" horiz-adv-x="834" 
d="M654 698h72l-546 -710h-72zM51 384h88v225h-88v40q27 3 62 13.5t59 23.5h30v-302h80v-56h-231v56zM528 24q0 29 14 52.5t34 41t55 43.5q31 23 46 36t25 28q12 17 12 35q0 19 -12.5 33.5t-42.5 14.5q-33 0 -48 -15.5t-15 -40.5v-25h-62q-2 14 -2 24q0 57 36.5 85t92.5 28
q53 0 85 -26t32 -79q0 -42 -28.5 -74.5t-80.5 -70.5q-5 -4 -21.5 -16t-27 -22.5t-14.5 -19.5h174v-56h-252v24z" />
    <glyph glyph-name="threequarters" unicode="&#xbe;" horiz-adv-x="834" 
d="M78.5 358q-34.5 30 -34.5 82v13h63v-15q0 -27 16.5 -41t47.5 -14t49 13.5t18 41.5q0 50 -69 50h-30v56h32q26 0 43.5 12.5t17.5 36.5q0 25 -16.5 37.5t-41.5 12.5q-27 0 -43.5 -13t-16.5 -39v-14h-63v19q0 46 34 74t88 28q56 0 89 -27t33 -75q0 -47 -52 -75v-2
q60 -26 60 -85q0 -48 -35.5 -77t-92.5 -29q-62 0 -96.5 30zM654 698h72l-546 -710h-72zM669 82h-158v51q59 110 86 231h66q-13 -58 -39.5 -122.5t-49.5 -103.5h95v96q12 34 22 80h41v-176h45v-56h-45v-82h-63v82z" />
    <glyph glyph-name="questiondown" unicode="&#xbf;" horiz-adv-x="611" 
d="M258 526h100v-108h-100v108zM143.5 -123.5q-57.5 48.5 -57.5 129.5q0 53 15.5 89.5t37 59t55.5 48.5q36 29 53 49.5t17 52.5v41h87v-56q0 -45 -22.5 -75t-66.5 -66q-42 -34 -63.5 -62.5t-21.5 -69.5t26 -76.5t96 -35.5q83 0 111.5 41.5t28.5 93.5q0 11 -0.5 18t-0.5 9h89
q1 -4 2 -14t1 -21q0 -58 -26.5 -104t-80 -73t-131.5 -27q-91 0 -148.5 48.5z" />
    <glyph glyph-name="Agrave" unicode="&#xc0;" horiz-adv-x="667" 
d="M7 0zM273 686h121l266 -686h-101l-69 183h-318l-67 -183h-98zM459 266l-80 214l-46 124h-5l-45 -122l-80 -216h256zM188 865l1 3h96l86 -132h-75z" />
    <glyph glyph-name="Aacute" unicode="&#xc1;" horiz-adv-x="667" 
d="M7 0zM273 686h121l266 -686h-101l-69 183h-318l-67 -183h-98zM459 266l-80 214l-46 124h-5l-45 -122l-80 -216h256zM382 868h96l1 -3l-108 -129h-75z" />
    <glyph glyph-name="Acircumflex" unicode="&#xc2;" horiz-adv-x="667" 
d="M7 0zM273 686h121l266 -686h-101l-69 183h-318l-67 -183h-98zM459 266l-80 214l-46 124h-5l-45 -122l-80 -216h256zM292 868h84l105 -135h-90l-57 79l-58 -79h-90z" />
    <glyph glyph-name="Atilde" unicode="&#xc3;" horiz-adv-x="667" 
d="M7 0zM273 686h121l266 -686h-101l-69 183h-318l-67 -183h-98zM459 266l-80 214l-46 124h-5l-45 -122l-80 -216h256zM191 838.5q21 29.5 64 29.5q19 0 36.5 -4t42.5 -12q43 -15 70 -15q25 0 28 31h65q0 -45 -21 -74.5t-64 -29.5q-19 0 -36.5 4t-42.5 12q-43 15 -70 15
q-25 0 -28 -31h-65q0 45 21 74.5z" />
    <glyph glyph-name="Adieresis" unicode="&#xc4;" horiz-adv-x="667" 
d="M7 0zM273 686h121l266 -686h-101l-69 183h-318l-67 -183h-98zM459 266l-80 214l-46 124h-5l-45 -122l-80 -216h256zM197 868h87v-95h-87v95zM384 868h87v-95h-87v95z" />
    <glyph glyph-name="Aring" unicode="&#xc5;" horiz-adv-x="667" 
d="M7 0zM273 686h121l266 -686h-101l-69 183h-318l-67 -183h-98zM459 266l-80 214l-46 124h-5l-45 -122l-80 -216h256zM264 738.5q-26 27.5 -26 68.5t26 68.5t70 27.5t70 -27.5t26 -68.5t-26 -68.5t-70 -27.5t-70 27.5zM370.5 771q14.5 15 14.5 36t-14.5 36t-36.5 15
t-36.5 -15t-14.5 -36t14.5 -36t36.5 -15t36.5 15z" />
    <glyph glyph-name="AE" unicode="&#xc6;" horiz-adv-x="1000" 
d="M345 686h595v-83h-445l59 -211h342v-83h-318l63 -226h305v-83h-380l-51 183h-331l-90 -183h-95zM492 266l-94 337h-5l-168 -337h267z" />
    <glyph glyph-name="Ccedilla" unicode="&#xc7;" horiz-adv-x="722" 
d="M529.5 114q53.5 45 53.5 132h93q0 -122 -73 -187t-197 -70l-4 -25q92 -6 92 -65q0 -45 -36 -63t-82 -18q-52 0 -95 8v49h100q20 0 30.5 5.5t10.5 18.5q0 12 -8.5 18t-30.5 6h-51l12 66q-297 20 -297 354q0 178 84 266.5t250 88.5q134 0 214.5 -66.5t80.5 -193.5h-97
q0 88 -52.5 133.5t-145.5 45.5q-121 0 -178 -64t-58 -208v-2q0 -145 57 -209.5t179 -64.5q95 0 148.5 45z" />
    <glyph glyph-name="Egrave" unicode="&#xc8;" horiz-adv-x="667" 
d="M79 0zM79 686h528v-83h-433v-211h389v-83h-389v-226h439v-83h-534v686zM188 865l1 3h96l86 -132h-75z" />
    <glyph glyph-name="Eacute" unicode="&#xc9;" horiz-adv-x="667" 
d="M79 0zM79 686h528v-83h-433v-211h389v-83h-389v-226h439v-83h-534v686zM382 868h96l1 -3l-108 -129h-75z" />
    <glyph glyph-name="Ecircumflex" unicode="&#xca;" horiz-adv-x="667" 
d="M79 0zM79 686h528v-83h-433v-211h389v-83h-389v-226h439v-83h-534v686zM292 868h84l105 -135h-90l-57 79l-58 -79h-90z" />
    <glyph glyph-name="Edieresis" unicode="&#xcb;" horiz-adv-x="667" 
d="M79 0zM79 686h528v-83h-433v-211h389v-83h-389v-226h439v-83h-534v686zM197 868h87v-95h-87v95zM384 868h87v-95h-87v95z" />
    <glyph glyph-name="Igrave" unicode="&#xcc;" horiz-adv-x="278" 
d="M0 0zM92 686h95v-686h-95v686zM-7 865l1 3h96l86 -132h-75z" />
    <glyph glyph-name="Iacute" unicode="&#xcd;" horiz-adv-x="278" 
d="M92 0zM92 686h95v-686h-95v686zM187 868h96l1 -3l-108 -129h-75z" />
    <glyph glyph-name="Icircumflex" unicode="&#xce;" horiz-adv-x="278" 
d="M0 0zM92 686h95v-686h-95v686zM97 868h84l105 -135h-90l-57 79l-58 -79h-90z" />
    <glyph glyph-name="Idieresis" unicode="&#xcf;" horiz-adv-x="278" 
d="M2 0zM92 686h95v-686h-95v686zM2 868h87v-95h-87v95zM189 868h87v-95h-87v95z" />
    <glyph glyph-name="Eth" unicode="&#xd0;" horiz-adv-x="722" 
d="M587 601.5q89 -84.5 89 -258.5t-89 -258.5t-254 -84.5h-254v324h-74v63h74v299h254q165 0 254 -84.5zM578 343q0 139 -62.5 199.5t-182.5 60.5h-159v-216h173v-63h-173v-241h159q119 0 181.5 60t63.5 198v2z" />
    <glyph glyph-name="Ntilde" unicode="&#xd1;" horiz-adv-x="722" 
d="M79 0zM79 686h85l362 -478l24 -32l4 1v47v462h89v-686h-81l-364 484l-26 35l-4 -1v-47v-471h-89v686zM218 838.5q21 29.5 64 29.5q19 0 36.5 -4t42.5 -12q43 -15 70 -15q25 0 28 31h65q0 -45 -21 -74.5t-64 -29.5q-19 0 -36.5 4t-42.5 12q-43 15 -70 15q-25 0 -28 -31
h-65q0 45 21 74.5z" />
    <glyph glyph-name="Ograve" unicode="&#xd2;" horiz-adv-x="778" 
d="M47 0zM136.5 77.5q-89.5 89.5 -89.5 265.5t89.5 265.5t252.5 89.5q164 0 253.5 -89.5t89.5 -265.5q0 -175 -89.5 -265t-253.5 -90q-163 0 -252.5 89.5zM571 133.5q63 64.5 63 205.5v4q-1 143 -64 208.5t-181 65.5q-117 0 -180 -65.5t-64 -208.5v-4q0 -141 63 -205.5
t181 -64.5q119 0 182 64.5zM243 865l1 3h96l86 -132h-75z" />
    <glyph glyph-name="Oacute" unicode="&#xd3;" horiz-adv-x="778" 
d="M47 0zM136.5 77.5q-89.5 89.5 -89.5 265.5t89.5 265.5t252.5 89.5q164 0 253.5 -89.5t89.5 -265.5q0 -175 -89.5 -265t-253.5 -90q-163 0 -252.5 89.5zM571 133.5q63 64.5 63 205.5v4q-1 143 -64 208.5t-181 65.5q-117 0 -180 -65.5t-64 -208.5v-4q0 -141 63 -205.5
t181 -64.5q119 0 182 64.5zM437 868h96l1 -3l-108 -129h-75z" />
    <glyph glyph-name="Ocircumflex" unicode="&#xd4;" horiz-adv-x="778" 
d="M47 0zM136.5 77.5q-89.5 89.5 -89.5 265.5t89.5 265.5t252.5 89.5q164 0 253.5 -89.5t89.5 -265.5q0 -175 -89.5 -265t-253.5 -90q-163 0 -252.5 89.5zM571 133.5q63 64.5 63 205.5v4q-1 143 -64 208.5t-181 65.5q-117 0 -180 -65.5t-64 -208.5v-4q0 -141 63 -205.5
t181 -64.5q119 0 182 64.5zM347 868h84l105 -135h-90l-57 79l-58 -79h-90z" />
    <glyph glyph-name="Otilde" unicode="&#xd5;" horiz-adv-x="778" 
d="M47 0zM136.5 77.5q-89.5 89.5 -89.5 265.5t89.5 265.5t252.5 89.5q164 0 253.5 -89.5t89.5 -265.5q0 -175 -89.5 -265t-253.5 -90q-163 0 -252.5 89.5zM571 133.5q63 64.5 63 205.5v4q-1 143 -64 208.5t-181 65.5q-117 0 -180 -65.5t-64 -208.5v-4q0 -141 63 -205.5
t181 -64.5q119 0 182 64.5zM246 838.5q21 29.5 64 29.5q19 0 36.5 -4t42.5 -12q43 -15 70 -15q25 0 28 31h65q0 -45 -21 -74.5t-64 -29.5q-19 0 -36.5 4t-42.5 12q-43 15 -70 15q-25 0 -28 -31h-65q0 45 21 74.5z" />
    <glyph glyph-name="Odieresis" unicode="&#xd6;" horiz-adv-x="778" 
d="M47 0zM136.5 77.5q-89.5 89.5 -89.5 265.5t89.5 265.5t252.5 89.5q164 0 253.5 -89.5t89.5 -265.5q0 -175 -89.5 -265t-253.5 -90q-163 0 -252.5 89.5zM571 133.5q63 64.5 63 205.5v4q-1 143 -64 208.5t-181 65.5q-117 0 -180 -65.5t-64 -208.5v-4q0 -141 63 -205.5
t181 -64.5q119 0 182 64.5zM252 868h87v-95h-87v95zM439 868h87v-95h-87v95z" />
    <glyph glyph-name="multiply" unicode="&#xd7;" horiz-adv-x="584" 
d="M81 104l152 151l-152 152l59 59l151 -152l152 152l59 -59l-152 -152l152 -151l-59 -59l-152 152l-151 -152z" />
    <glyph glyph-name="Oslash" unicode="&#xd8;" horiz-adv-x="778" 
d="M141 73q-94 91 -94 270q0 176 89.5 265.5t252.5 89.5q117 0 196 -46l63 83h84l-94 -123q94 -91 94 -269q0 -175 -89.5 -265t-253.5 -90q-117 0 -195 44l-62 -81h-85zM532 583q-58 34 -143 34q-118 0 -181 -64.5t-63 -205.5v-4q0 -129 52 -196zM571 133.5
q63 64.5 63 205.5v4q0 126 -52 195l-334 -436q55 -33 141 -33q119 0 182 64.5z" />
    <glyph glyph-name="Ugrave" unicode="&#xd9;" horiz-adv-x="722" 
d="M79 0zM152 53q-73 65 -73 200v433h95v-438q0 -88 48.5 -133.5t137.5 -45.5q90 0 139 46t49 133v438h95v-433q0 -135 -73 -200t-210 -65q-135 0 -208 65zM215 865l1 3h96l86 -132h-75z" />
    <glyph glyph-name="Uacute" unicode="&#xda;" horiz-adv-x="722" 
d="M79 0zM152 53q-73 65 -73 200v433h95v-438q0 -88 48.5 -133.5t137.5 -45.5q90 0 139 46t49 133v438h95v-433q0 -135 -73 -200t-210 -65q-135 0 -208 65zM409 868h96l1 -3l-108 -129h-75z" />
    <glyph glyph-name="Ucircumflex" unicode="&#xdb;" horiz-adv-x="722" 
d="M79 0zM152 53q-73 65 -73 200v433h95v-438q0 -88 48.5 -133.5t137.5 -45.5q90 0 139 46t49 133v438h95v-433q0 -135 -73 -200t-210 -65q-135 0 -208 65zM319 868h84l105 -135h-90l-57 79l-58 -79h-90z" />
    <glyph glyph-name="Udieresis" unicode="&#xdc;" horiz-adv-x="722" 
d="M79 0zM152 53q-73 65 -73 200v433h95v-438q0 -88 48.5 -133.5t137.5 -45.5q90 0 139 46t49 133v438h95v-433q0 -135 -73 -200t-210 -65q-135 0 -208 65zM224 868h87v-95h-87v95zM411 868h87v-95h-87v95z" />
    <glyph glyph-name="Yacute" unicode="&#xdd;" horiz-adv-x="667" 
d="M16 0zM287 284l-271 402h115l204 -314h5l203 314h109l-270 -402v-284h-95v284zM382 868h96l1 -3l-108 -129h-75z" />
    <glyph glyph-name="Thorn" unicode="&#xde;" horiz-adv-x="667" 
d="M79 686h95v-119h239q103 0 158 -57t55 -152q0 -97 -57.5 -155.5t-155.5 -58.5h-239v-144h-95v686zM408 227q56 0 89 35t33 95q0 61 -31 94t-91 33h-234v-257h234z" />
    <glyph glyph-name="germandbls" unicode="&#xdf;" horiz-adv-x="611" 
d="M64 516q0 111 70 165t180 54q73 0 127.5 -23t84 -64.5t29.5 -93.5q0 -56 -32 -98.5t-87 -60.5v-4q65 -20 105 -69t40 -116q0 -57 -29.5 -104.5t-80 -74.5t-110.5 -27h-124v74h114q38 0 70 19t51 51t19 69q0 38 -20 69.5t-54.5 49.5t-75.5 18h-104v73h94q36 0 67 16.5
t49 45.5t18 63q0 51 -40 82.5t-112 31.5q-75 0 -117.5 -37t-42.5 -107v-518h-89v516z" />
    <glyph glyph-name="agrave" unicode="&#xe0;" 
d="M36 0zM89 20q-53 32 -53 116q0 101 90 138.5t260 37.5v58q0 46 -26 70.5t-94 24.5q-64 0 -91.5 -24t-27.5 -59v-12h-85q-1 6 -1 22q0 70 58 108t155 38q98 0 149 -41t51 -116v-285q0 -18 10 -26.5t25 -8.5h40v-57q-26 -12 -68 -12q-34 0 -57 20.5t-31 54.5h-7
q-27 -37 -73.5 -58t-102.5 -21q-68 0 -121 32zM307 77q35 16 57 47.5t22 76.5v38q-129 0 -193.5 -20.5t-64.5 -77.5q0 -43 26.5 -61.5t78.5 -18.5q39 0 74 16zM132 720l1 3h96l86 -132h-75z" />
    <glyph glyph-name="aacute" unicode="&#xe1;" 
d="M36 0zM89 20q-53 32 -53 116q0 101 90 138.5t260 37.5v58q0 46 -26 70.5t-94 24.5q-64 0 -91.5 -24t-27.5 -59v-12h-85q-1 6 -1 22q0 70 58 108t155 38q98 0 149 -41t51 -116v-285q0 -18 10 -26.5t25 -8.5h40v-57q-26 -12 -68 -12q-34 0 -57 20.5t-31 54.5h-7
q-27 -37 -73.5 -58t-102.5 -21q-68 0 -121 32zM307 77q35 16 57 47.5t22 76.5v38q-129 0 -193.5 -20.5t-64.5 -77.5q0 -43 26.5 -61.5t78.5 -18.5q39 0 74 16zM326 723h96l1 -3l-108 -129h-75z" />
    <glyph glyph-name="acircumflex" unicode="&#xe2;" 
d="M36 0zM89 20q-53 32 -53 116q0 101 90 138.5t260 37.5v58q0 46 -26 70.5t-94 24.5q-64 0 -91.5 -24t-27.5 -59v-12h-85q-1 6 -1 22q0 70 58 108t155 38q98 0 149 -41t51 -116v-285q0 -18 10 -26.5t25 -8.5h40v-57q-26 -12 -68 -12q-34 0 -57 20.5t-31 54.5h-7
q-27 -37 -73.5 -58t-102.5 -21q-68 0 -121 32zM307 77q35 16 57 47.5t22 76.5v38q-129 0 -193.5 -20.5t-64.5 -77.5q0 -43 26.5 -61.5t78.5 -18.5q39 0 74 16zM236 723h84l105 -135h-90l-57 79l-58 -79h-90z" />
    <glyph glyph-name="atilde" unicode="&#xe3;" 
d="M36 0zM89 20q-53 32 -53 116q0 101 90 138.5t260 37.5v58q0 46 -26 70.5t-94 24.5q-64 0 -91.5 -24t-27.5 -59v-12h-85q-1 6 -1 22q0 70 58 108t155 38q98 0 149 -41t51 -116v-285q0 -18 10 -26.5t25 -8.5h40v-57q-26 -12 -68 -12q-34 0 -57 20.5t-31 54.5h-7
q-27 -37 -73.5 -58t-102.5 -21q-68 0 -121 32zM307 77q35 16 57 47.5t22 76.5v38q-129 0 -193.5 -20.5t-64.5 -77.5q0 -43 26.5 -61.5t78.5 -18.5q39 0 74 16zM135 693.5q21 29.5 64 29.5q19 0 36.5 -4t42.5 -12q43 -15 70 -15q25 0 28 31h65q0 -45 -21 -74.5t-64 -29.5
q-19 0 -36.5 4t-42.5 12q-43 15 -70 15q-25 0 -28 -31h-65q0 45 21 74.5z" />
    <glyph glyph-name="adieresis" unicode="&#xe4;" 
d="M36 0zM89 20q-53 32 -53 116q0 101 90 138.5t260 37.5v58q0 46 -26 70.5t-94 24.5q-64 0 -91.5 -24t-27.5 -59v-12h-85q-1 6 -1 22q0 70 58 108t155 38q98 0 149 -41t51 -116v-285q0 -18 10 -26.5t25 -8.5h40v-57q-26 -12 -68 -12q-34 0 -57 20.5t-31 54.5h-7
q-27 -37 -73.5 -58t-102.5 -21q-68 0 -121 32zM307 77q35 16 57 47.5t22 76.5v38q-129 0 -193.5 -20.5t-64.5 -77.5q0 -43 26.5 -61.5t78.5 -18.5q39 0 74 16zM141 723h87v-95h-87v95zM328 723h87v-95h-87v95z" />
    <glyph glyph-name="aring" unicode="&#xe5;" 
d="M36 0zM89 20q-53 32 -53 116q0 101 90 138.5t260 37.5v58q0 46 -26 70.5t-94 24.5q-64 0 -91.5 -24t-27.5 -59v-12h-85q-1 6 -1 22q0 70 58 108t155 38q98 0 149 -41t51 -116v-285q0 -18 10 -26.5t25 -8.5h40v-57q-26 -12 -68 -12q-34 0 -57 20.5t-31 54.5h-7
q-27 -37 -73.5 -58t-102.5 -21q-68 0 -121 32zM307 77q35 16 57 47.5t22 76.5v38q-129 0 -193.5 -20.5t-64.5 -77.5q0 -43 26.5 -61.5t78.5 -18.5q39 0 74 16zM208 593.5q-26 27.5 -26 68.5t26 68.5t70 27.5t70 -27.5t26 -68.5t-26 -68.5t-70 -27.5t-70 27.5zM314.5 626
q14.5 15 14.5 36t-14.5 36t-36.5 15t-36.5 -15t-14.5 -36t14.5 -36t36.5 -15t36.5 15z" />
    <glyph glyph-name="ae" unicode="&#xe6;" horiz-adv-x="889" 
d="M92 20q-56 32 -56 116q0 101 91 138.5t261 37.5v58q0 46 -27 70.5t-95 24.5q-64 0 -91.5 -24t-27.5 -59v-12h-85q-1 6 -1 22q0 70 58 108t155 38q124 0 174 -74q60 74 181 74q110 0 165.5 -60.5t55.5 -194.5v-44h-373q5 -91 41.5 -134.5t110.5 -43.5q60 0 97.5 29
t37.5 89h86q0 -92 -62 -141.5t-159 -49.5q-141 0 -197 89q-36 -42 -92 -65.5t-120 -23.5q-72 0 -128 32zM758 312q0 153 -129 153q-71 0 -107 -36t-43 -117h279zM342.5 95q45.5 34 45.5 106v38q-129 0 -194.5 -20.5t-65.5 -77.5q0 -43 26.5 -61.5t78.5 -18.5q64 0 109.5 34z
" />
    <glyph glyph-name="ccedilla" unicode="&#xe7;" horiz-adv-x="500" 
d="M361.5 94.5q28.5 33.5 28.5 100.5h85q0 -88 -48.5 -146t-149.5 -61l-4 -24q92 -6 92 -65q0 -45 -36 -63t-82 -18q-52 0 -95 8v49h100q20 0 30.5 5.5t10.5 18.5q0 12 -8.5 18t-30.5 6h-51l12 68q-93 13 -136.5 79.5t-43.5 192.5q0 141 56.5 208t175.5 67q108 0 158 -52
t50 -155h-90q0 71 -25.5 102.5t-92.5 31.5q-73 0 -107 -47.5t-34 -154.5v-4q0 -106 33 -152t108 -46q66 0 94.5 33.5z" />
    <glyph glyph-name="egrave" unicode="&#xe8;" 
d="M39 0zM101 55q-62 67 -62 208t62 208t189 67q114 0 170.5 -60.5t56.5 -194.5v-44h-387q5 -91 43.5 -134.5t116.5 -43.5q63 0 102 29t39 89h86q0 -92 -63.5 -141.5t-163.5 -49.5q-127 0 -189 67zM425 312q0 153 -135 153q-75 0 -112.5 -36t-45.5 -117h293zM132 720l1 3h96
l86 -132h-75z" />
    <glyph glyph-name="eacute" unicode="&#xe9;" 
d="M39 0zM101 55q-62 67 -62 208t62 208t189 67q114 0 170.5 -60.5t56.5 -194.5v-44h-387q5 -91 43.5 -134.5t116.5 -43.5q63 0 102 29t39 89h86q0 -92 -63.5 -141.5t-163.5 -49.5q-127 0 -189 67zM425 312q0 153 -135 153q-75 0 -112.5 -36t-45.5 -117h293zM326 723h96
l1 -3l-108 -129h-75z" />
    <glyph glyph-name="ecircumflex" unicode="&#xea;" 
d="M39 0zM101 55q-62 67 -62 208t62 208t189 67q114 0 170.5 -60.5t56.5 -194.5v-44h-387q5 -91 43.5 -134.5t116.5 -43.5q63 0 102 29t39 89h86q0 -92 -63.5 -141.5t-163.5 -49.5q-127 0 -189 67zM425 312q0 153 -135 153q-75 0 -112.5 -36t-45.5 -117h293zM236 723h84
l105 -135h-90l-57 79l-58 -79h-90z" />
    <glyph glyph-name="edieresis" unicode="&#xeb;" 
d="M39 0zM101 55q-62 67 -62 208t62 208t189 67q114 0 170.5 -60.5t56.5 -194.5v-44h-387q5 -91 43.5 -134.5t116.5 -43.5q63 0 102 29t39 89h86q0 -92 -63.5 -141.5t-163.5 -49.5q-127 0 -189 67zM425 312q0 153 -135 153q-75 0 -112.5 -36t-45.5 -117h293zM141 723h87v-95
h-87v95zM328 723h87v-95h-87v95z" />
    <glyph glyph-name="igrave" unicode="&#xec;" horiz-adv-x="278" 
d="M9 720l1 3h96l86 -132h-75zM95 526h88v-526h-88v526z" />
    <glyph glyph-name="iacute" unicode="&#xed;" horiz-adv-x="278" 
d="M171 723h96l1 -3l-108 -129h-75zM95 526h88v-526h-88v526z" />
    <glyph glyph-name="icircumflex" unicode="&#xee;" horiz-adv-x="278" 
d="M98 723h84l105 -135h-90l-57 79l-58 -79h-90zM95 526h88v-526h-88v526z" />
    <glyph glyph-name="idieresis" unicode="&#xef;" horiz-adv-x="278" 
d="M2 723h87v-95h-87v95zM189 723h87v-95h-87v95zM95 526h88v-526h-88v526z" />
    <glyph glyph-name="eth" unicode="&#xf0;" 
d="M481 454q40 -87 40 -191q0 -140 -61 -207.5t-182 -67.5t-182 67.5t-61 207.5q0 139 62 207t167 68q35 0 77 -11l1 1q-29 45 -70 84l-152 -12v60l99 8l-44 33l-24 18l2 4h98q32 -24 57 -48l152 10v-60l-93 -6q74 -78 114 -165zM393 108q36 47 37 153q-1 108 -37 156
t-115 48q-80 0 -116 -46.5t-36 -150.5v-5q0 -107 36 -154.5t116 -47.5q79 0 115 47z" />
    <glyph glyph-name="ntilde" unicode="&#xf1;" 
d="M67 0zM67 526h67l10 -71h7q58 83 177 83q79 0 121.5 -42.5t42.5 -136.5v-359h-88v353q0 63 -28 87.5t-81 24.5q-38 0 -70 -18.5t-51 -53.5t-19 -82v-311h-88v526zM135 693.5q21 29.5 64 29.5q19 0 36.5 -4t42.5 -12q43 -15 70 -15q25 0 28 31h65q0 -45 -21 -74.5
t-64 -29.5q-19 0 -36.5 4t-42.5 12q-43 15 -70 15q-25 0 -28 -31h-65q0 45 21 74.5z" />
    <glyph glyph-name="ograve" unicode="&#xf2;" 
d="M35 0zM96 55.5q-61 67.5 -61 207.5t61 207.5t182 67.5t182 -67.5t61 -207.5t-61 -207.5t-182 -67.5t-182 67.5zM394 107.5q36 46.5 36 151.5v8q0 105 -36 151.5t-116 46.5t-116 -46.5t-36 -151.5v-8q0 -105 36 -151.5t116 -46.5t116 46.5zM132 720l1 3h96l86 -132h-75z
" />
    <glyph glyph-name="oacute" unicode="&#xf3;" 
d="M35 0zM96 55.5q-61 67.5 -61 207.5t61 207.5t182 67.5t182 -67.5t61 -207.5t-61 -207.5t-182 -67.5t-182 67.5zM394 107.5q36 46.5 36 151.5v8q0 105 -36 151.5t-116 46.5t-116 -46.5t-36 -151.5v-8q0 -105 36 -151.5t116 -46.5t116 46.5zM326 723h96l1 -3l-108 -129h-75
z" />
    <glyph glyph-name="ocircumflex" unicode="&#xf4;" 
d="M35 0zM96 55.5q-61 67.5 -61 207.5t61 207.5t182 67.5t182 -67.5t61 -207.5t-61 -207.5t-182 -67.5t-182 67.5zM394 107.5q36 46.5 36 151.5v8q0 105 -36 151.5t-116 46.5t-116 -46.5t-36 -151.5v-8q0 -105 36 -151.5t116 -46.5t116 46.5zM236 723h84l105 -135h-90
l-57 79l-58 -79h-90z" />
    <glyph glyph-name="otilde" unicode="&#xf5;" 
d="M35 0zM96 55.5q-61 67.5 -61 207.5t61 207.5t182 67.5t182 -67.5t61 -207.5t-61 -207.5t-182 -67.5t-182 67.5zM394 107.5q36 46.5 36 151.5v8q0 105 -36 151.5t-116 46.5t-116 -46.5t-36 -151.5v-8q0 -105 36 -151.5t116 -46.5t116 46.5zM135 693.5q21 29.5 64 29.5
q19 0 36.5 -4t42.5 -12q43 -15 70 -15q25 0 28 31h65q0 -45 -21 -74.5t-64 -29.5q-19 0 -36.5 4t-42.5 12q-43 15 -70 15q-25 0 -28 -31h-65q0 45 21 74.5z" />
    <glyph glyph-name="odieresis" unicode="&#xf6;" 
d="M35 0zM96 55.5q-61 67.5 -61 207.5t61 207.5t182 67.5t182 -67.5t61 -207.5t-61 -207.5t-182 -67.5t-182 67.5zM394 107.5q36 46.5 36 151.5v8q0 105 -36 151.5t-116 46.5t-116 -46.5t-36 -151.5v-8q0 -105 36 -151.5t116 -46.5t116 46.5zM141 723h87v-95h-87v95z
M328 723h87v-95h-87v95z" />
    <glyph glyph-name="divide" unicode="&#xf7;" horiz-adv-x="549" 
d="M224 511h100v-100h-100v100zM38 297h473v-83h-473v83zM224 100h100v-100h-100v100z" />
    <glyph glyph-name="oslash" unicode="&#xf8;" horiz-adv-x="611" 
d="M121 57q-59 68 -59 206q0 140 61 207.5t182 67.5q82 0 138 -32l49 69h74l-77 -108q59 -68 59 -204q0 -140 -61 -207.5t-182 -67.5q-82 0 -137 31l-48 -68h-75zM396 441q-34 24 -91 24q-80 0 -116 -46.5t-36 -150.5v-5q0 -86 22 -131zM421 107.5q36 46.5 36 150.5v5
q0 84 -22 129l-220 -308q33 -23 90 -23q80 0 116 46.5z" />
    <glyph glyph-name="ugrave" unicode="&#xf9;" 
d="M64 0zM106.5 30.5q-42.5 42.5 -42.5 136.5v359h88v-353q0 -63 28 -87.5t81 -24.5q38 0 70 18.5t51 53.5t19 82v311h88v-526h-67l-10 71h-7q-58 -83 -177 -83q-79 0 -121.5 42.5zM131 720l1 3h96l86 -132h-75z" />
    <glyph glyph-name="uacute" unicode="&#xfa;" 
d="M64 0zM106.5 30.5q-42.5 42.5 -42.5 136.5v359h88v-353q0 -63 28 -87.5t81 -24.5q38 0 70 18.5t51 53.5t19 82v311h88v-526h-67l-10 71h-7q-58 -83 -177 -83q-79 0 -121.5 42.5zM325 723h96l1 -3l-108 -129h-75z" />
    <glyph glyph-name="ucircumflex" unicode="&#xfb;" 
d="M64 0zM106.5 30.5q-42.5 42.5 -42.5 136.5v359h88v-353q0 -63 28 -87.5t81 -24.5q38 0 70 18.5t51 53.5t19 82v311h88v-526h-67l-10 71h-7q-58 -83 -177 -83q-79 0 -121.5 42.5zM235 723h84l105 -135h-90l-57 79l-58 -79h-90z" />
    <glyph glyph-name="udieresis" unicode="&#xfc;" 
d="M64 0zM106.5 30.5q-42.5 42.5 -42.5 136.5v359h88v-353q0 -63 28 -87.5t81 -24.5q38 0 70 18.5t51 53.5t19 82v311h88v-526h-67l-10 71h-7q-58 -83 -177 -83q-79 0 -121.5 42.5zM140 723h87v-95h-87v95zM327 723h87v-95h-87v95z" />
    <glyph glyph-name="yacute" unicode="&#xfd;" horiz-adv-x="500" 
d="M13 0zM47 -174v57h35q102 0 134 117l-203 526h93l98 -263q14 -37 32.5 -92.5t24.5 -72.5h5q5 17 18.5 64t30.5 101l84 263h88l-173 -499q-35 -100 -79.5 -154.5t-117.5 -54.5q-44 0 -70 8zM298 723h96l1 -3l-108 -129h-75z" />
    <glyph glyph-name="thorn" unicode="&#xfe;" 
d="M67 723h88v-257h6q26 38 65 55t95 17q93 0 146.5 -68.5t53.5 -206.5t-53.5 -206.5t-146.5 -68.5q-56 0 -95 17t-65 55h-6v-233h-88v896zM372 80q30 19 44 62t14 117v4q0 75 -14 119t-44.5 63.5t-80.5 19.5q-70 0 -103 -51t-33 -151v-4q0 -98 32.5 -148t103.5 -50
q51 0 81 19z" />
    <glyph glyph-name="ydieresis" unicode="&#xff;" horiz-adv-x="500" 
d="M13 0zM47 -174v57h35q102 0 134 117l-203 526h93l98 -263q14 -37 32.5 -92.5t24.5 -72.5h5q5 17 18.5 64t30.5 101l84 263h88l-173 -499q-35 -100 -79.5 -154.5t-117.5 -54.5q-44 0 -70 8zM113 723h87v-95h-87v95zM300 723h87v-95h-87v95z" />
    <glyph glyph-name="Amacron" unicode="&#x100;" horiz-adv-x="667" 
d="M7 0zM273 686h121l266 -686h-101l-69 183h-318l-67 -183h-98zM459 266l-80 214l-46 124h-5l-45 -122l-80 -216h256zM181 844h305v-72h-305v72z" />
    <glyph glyph-name="amacron" unicode="&#x101;" 
d="M36 0zM89 20q-53 32 -53 116q0 101 90 138.5t260 37.5v58q0 46 -26 70.5t-94 24.5q-64 0 -91.5 -24t-27.5 -59v-12h-85q-1 6 -1 22q0 70 58 108t155 38q98 0 149 -41t51 -116v-285q0 -18 10 -26.5t25 -8.5h40v-57q-26 -12 -68 -12q-34 0 -57 20.5t-31 54.5h-7
q-27 -37 -73.5 -58t-102.5 -21q-68 0 -121 32zM307 77q35 16 57 47.5t22 76.5v38q-129 0 -193.5 -20.5t-64.5 -77.5q0 -43 26.5 -61.5t78.5 -18.5q39 0 74 16zM125 699h305v-72h-305v72z" />
    <glyph glyph-name="Abreve" unicode="&#x102;" horiz-adv-x="667" 
d="M7 0zM273 686h121l266 -686h-101l-69 183h-318l-67 -183h-98zM459 266l-80 214l-46 124h-5l-45 -122l-80 -216h256zM222 785.5q-34 34.5 -34 82.5h61q12 -53 84 -53q43 0 62.5 16t22.5 37h61q0 -48 -34.5 -82.5t-111.5 -34.5t-111 34.5z" />
    <glyph glyph-name="abreve" unicode="&#x103;" 
d="M36 0zM89 20q-53 32 -53 116q0 101 90 138.5t260 37.5v58q0 46 -26 70.5t-94 24.5q-64 0 -91.5 -24t-27.5 -59v-12h-85q-1 6 -1 22q0 70 58 108t155 38q98 0 149 -41t51 -116v-285q0 -18 10 -26.5t25 -8.5h40v-57q-26 -12 -68 -12q-34 0 -57 20.5t-31 54.5h-7
q-27 -37 -73.5 -58t-102.5 -21q-68 0 -121 32zM307 77q35 16 57 47.5t22 76.5v38q-129 0 -193.5 -20.5t-64.5 -77.5q0 -43 26.5 -61.5t78.5 -18.5q39 0 74 16zM166 640.5q-34 34.5 -34 82.5h61q12 -53 84 -53q43 0 62.5 16t22.5 37h61q0 -48 -34.5 -82.5t-111.5 -34.5
t-111 34.5z" />
    <glyph glyph-name="Aogonek" unicode="&#x104;" horiz-adv-x="667" 
d="M532.5 -160.5q-27.5 21.5 -27.5 68.5q0 29 14.5 50.5t39.5 41.5l-69 183h-318l-67 -183h-98l266 686h121l266 -686h-36q-18 -15 -30 -33.5t-12 -38.5q0 -22 12 -33.5t34 -11.5h32v-51q-31 -14 -63 -14q-37 0 -64.5 21.5zM459 266l-80 214l-46 124h-5l-45 -122l-80 -216
h256z" />
    <glyph glyph-name="aogonek" unicode="&#x105;" 
d="M414 -160.5q-28 21.5 -28 68.5q0 56 50 95q-34 20 -43 64h-7q-27 -37 -73.5 -58t-102.5 -21q-68 0 -121 32t-53 116q0 101 90 138.5t260 37.5v58q0 46 -26 70.5t-94 24.5q-64 0 -91.5 -24t-27.5 -59v-12h-85q-1 6 -1 22q0 70 58 108t155 38q98 0 149 -41t51 -116v-285
q0 -18 10 -26.5t25 -8.5h40v-57q-37 -6 -61 -19.5t-24 -50.5q0 -22 13 -36.5t40 -14.5h32v-51q-37 -14 -69 -14q-38 0 -66 21.5zM307 77q35 16 57 47.5t22 76.5v38q-129 0 -193.5 -20.5t-64.5 -77.5q0 -43 26.5 -61.5t78.5 -18.5q39 0 74 16z" />
    <glyph glyph-name="Cacute" unicode="&#x106;" horiz-adv-x="722" 
d="M47 0zM131 76.5q-84 88.5 -84 266.5t84 266.5t250 88.5q134 0 214.5 -66.5t80.5 -193.5h-97q0 88 -52.5 133.5t-145.5 45.5q-121 0 -178 -64t-58 -208v-2q0 -145 57 -209.5t179 -64.5q95 0 148.5 45t53.5 132h93q0 -128 -80 -193t-215 -65q-166 0 -250 88.5zM409 868h96
l1 -3l-108 -129h-75z" />
    <glyph glyph-name="cacute" unicode="&#x107;" horiz-adv-x="500" 
d="M35 0zM91 54.5q-56 66.5 -56 208.5q0 141 56.5 208t175.5 67q108 0 158 -52t50 -155h-90q0 71 -25.5 102.5t-92.5 31.5q-73 0 -107 -47.5t-34 -154.5v-4q0 -106 33 -152t108 -46q66 0 94.5 33.5t28.5 100.5h85q0 -90 -51 -148.5t-157 -58.5q-120 0 -176 66.5zM298 723h96
l1 -3l-108 -129h-75z" />
    <glyph glyph-name="Ccircumflex" unicode="&#x108;" horiz-adv-x="722" 
d="M47 0zM131 76.5q-84 88.5 -84 266.5t84 266.5t250 88.5q134 0 214.5 -66.5t80.5 -193.5h-97q0 88 -52.5 133.5t-145.5 45.5q-121 0 -178 -64t-58 -208v-2q0 -145 57 -209.5t179 -64.5q95 0 148.5 45t53.5 132h93q0 -128 -80 -193t-215 -65q-166 0 -250 88.5zM319 868h84
l105 -135h-90l-57 79l-58 -79h-90z" />
    <glyph glyph-name="ccircumflex" unicode="&#x109;" horiz-adv-x="500" 
d="M35 0zM91 54.5q-56 66.5 -56 208.5q0 141 56.5 208t175.5 67q108 0 158 -52t50 -155h-90q0 71 -25.5 102.5t-92.5 31.5q-73 0 -107 -47.5t-34 -154.5v-4q0 -106 33 -152t108 -46q66 0 94.5 33.5t28.5 100.5h85q0 -90 -51 -148.5t-157 -58.5q-120 0 -176 66.5zM208 723h84
l105 -135h-90l-57 79l-58 -79h-90z" />
    <glyph glyph-name="Cdotaccent" unicode="&#x10a;" horiz-adv-x="722" 
d="M47 0zM131 76.5q-84 88.5 -84 266.5t84 266.5t250 88.5q134 0 214.5 -66.5t80.5 -193.5h-97q0 88 -52.5 133.5t-145.5 45.5q-121 0 -178 -64t-58 -208v-2q0 -145 57 -209.5t179 -64.5q95 0 148.5 45t53.5 132h93q0 -128 -80 -193t-215 -65q-166 0 -250 88.5zM317 868h87
v-95h-87v95z" />
    <glyph glyph-name="cdotaccent" unicode="&#x10b;" horiz-adv-x="500" 
d="M35 0zM91 54.5q-56 66.5 -56 208.5q0 141 56.5 208t175.5 67q108 0 158 -52t50 -155h-90q0 71 -25.5 102.5t-92.5 31.5q-73 0 -107 -47.5t-34 -154.5v-4q0 -106 33 -152t108 -46q66 0 94.5 33.5t28.5 100.5h85q0 -90 -51 -148.5t-157 -58.5q-120 0 -176 66.5zM206 723h87
v-95h-87v95z" />
    <glyph glyph-name="Ccaron" unicode="&#x10c;" horiz-adv-x="722" 
d="M47 0zM131 76.5q-84 88.5 -84 266.5t84 266.5t250 88.5q134 0 214.5 -66.5t80.5 -193.5h-97q0 88 -52.5 133.5t-145.5 45.5q-121 0 -178 -64t-58 -208v-2q0 -145 57 -209.5t179 -64.5q95 0 148.5 45t53.5 132h93q0 -128 -80 -193t-215 -65q-166 0 -250 88.5zM213 868h90
l58 -79l57 79h90l-105 -135h-84z" />
    <glyph glyph-name="ccaron" unicode="&#x10d;" horiz-adv-x="500" 
d="M35 0zM91 54.5q-56 66.5 -56 208.5q0 141 56.5 208t175.5 67q108 0 158 -52t50 -155h-90q0 71 -25.5 102.5t-92.5 31.5q-73 0 -107 -47.5t-34 -154.5v-4q0 -106 33 -152t108 -46q66 0 94.5 33.5t28.5 100.5h85q0 -90 -51 -148.5t-157 -58.5q-120 0 -176 66.5zM102 723h90
l58 -79l57 79h90l-105 -135h-84z" />
    <glyph glyph-name="Dcaron" unicode="&#x10e;" horiz-adv-x="722" 
d="M79 0zM79 686h254q165 0 254 -84.5t89 -258.5t-89 -258.5t-254 -84.5h-254v686zM333 83q119 0 181.5 60t63.5 198v2q0 139 -62.5 199.5t-182.5 60.5h-159v-520h159zM213 868h90l58 -79l57 79h90l-105 -135h-84z" />
    <glyph glyph-name="dcaron" unicode="&#x10f;" horiz-adv-x="625" 
d="M89 55q-54 67 -54 208q0 138 53.5 206.5t146.5 68.5q56 0 95 -17t65 -55h6v257h88v-723h-66l-11 71h-6q-26 -41 -68.5 -62t-94.5 -21q-100 0 -154 67zM579 595h-34v91h85v-84l-41 -112h-44zM368.5 111q32.5 50 32.5 148v4q0 100 -33 151t-103 51q-50 0 -80.5 -19.5
t-44.5 -63.5t-14 -119v-4q0 -74 14 -117t44 -62t81 -19q71 0 103.5 50z" />
    <glyph glyph-name="Dcroat" unicode="&#x110;" horiz-adv-x="722" 
d="M5 0zM587 601.5q89 -84.5 89 -258.5t-89 -258.5t-254 -84.5h-254v324h-74v63h74v299h254q165 0 254 -84.5zM578 343q0 139 -62.5 199.5t-182.5 60.5h-159v-216h173v-63h-173v-241h159q119 0 181.5 60t63.5 198v2z" />
    <glyph glyph-name="dcroat" unicode="&#x111;" 
d="M555 596h-66v-596h-66l-11 71h-6q-26 -41 -68.5 -62t-94.5 -21q-100 0 -154 67t-54 208q0 138 53.5 206.5t146.5 68.5q56 0 95 -17t65 -55h6v130h-140v62h140v65h88v-65h66v-62zM401 263q0 100 -33 151t-103 51q-50 0 -80.5 -19.5t-44.5 -63.5t-14 -119v-4q0 -74 14 -117
t44 -62t81 -19q71 0 103.5 50t32.5 148v4z" />
    <glyph glyph-name="Emacron" unicode="&#x112;" horiz-adv-x="667" 
d="M79 0zM79 686h528v-83h-433v-211h389v-83h-389v-226h439v-83h-534v686zM181 844h305v-72h-305v72z" />
    <glyph glyph-name="emacron" unicode="&#x113;" 
d="M39 0zM101 55q-62 67 -62 208t62 208t189 67q114 0 170.5 -60.5t56.5 -194.5v-44h-387q5 -91 43.5 -134.5t116.5 -43.5q63 0 102 29t39 89h86q0 -92 -63.5 -141.5t-163.5 -49.5q-127 0 -189 67zM425 312q0 153 -135 153q-75 0 -112.5 -36t-45.5 -117h293zM125 699h305
v-72h-305v72z" />
    <glyph glyph-name="Ebreve" unicode="&#x114;" horiz-adv-x="667" 
d="M79 0zM79 686h528v-83h-433v-211h389v-83h-389v-226h439v-83h-534v686zM222 785.5q-34 34.5 -34 82.5h61q12 -53 84 -53q43 0 62.5 16t22.5 37h61q0 -48 -34.5 -82.5t-111.5 -34.5t-111 34.5z" />
    <glyph glyph-name="ebreve" unicode="&#x115;" 
d="M39 0zM101 55q-62 67 -62 208t62 208t189 67q114 0 170.5 -60.5t56.5 -194.5v-44h-387q5 -91 43.5 -134.5t116.5 -43.5q63 0 102 29t39 89h86q0 -92 -63.5 -141.5t-163.5 -49.5q-127 0 -189 67zM425 312q0 153 -135 153q-75 0 -112.5 -36t-45.5 -117h293zM166 640.5
q-34 34.5 -34 82.5h61q12 -53 84 -53q43 0 62.5 16t22.5 37h61q0 -48 -34.5 -82.5t-111.5 -34.5t-111 34.5z" />
    <glyph glyph-name="Edotaccent" unicode="&#x116;" horiz-adv-x="667" 
d="M79 0zM79 686h528v-83h-433v-211h389v-83h-389v-226h439v-83h-534v686zM290 868h87v-95h-87v95z" />
    <glyph glyph-name="edotaccent" unicode="&#x117;" 
d="M39 0zM101 55q-62 67 -62 208t62 208t189 67q114 0 170.5 -60.5t56.5 -194.5v-44h-387q5 -91 43.5 -134.5t116.5 -43.5q63 0 102 29t39 89h86q0 -92 -63.5 -141.5t-163.5 -49.5q-127 0 -189 67zM425 312q0 153 -135 153q-75 0 -112.5 -36t-45.5 -117h293zM234 723h87v-95
h-87v95z" />
    <glyph glyph-name="Eogonek" unicode="&#x118;" horiz-adv-x="667" 
d="M481 -161q-31 21 -31 67q0 62 63 94h-434v686h528v-83h-433v-211h389v-83h-389v-226h439v-83q-41 0 -63 -21.5t-22 -44.5q0 -22 13 -36.5t40 -14.5h32v-51q-34 -14 -65 -14q-36 0 -67 21z" />
    <glyph glyph-name="eogonek" unicode="&#x119;" 
d="M381 -159.5q-28 22.5 -28 74.5q0 26 7.5 49t17.5 39q-40 -15 -88 -15q-127 0 -189 67t-62 208t62 208t189 67q114 0 170.5 -60.5t56.5 -194.5v-44h-387q5 -91 43.5 -134.5t116.5 -43.5q63 0 102 29t39 89h86q-1 -73 -39 -118q-18 -22 -32 -52.5t-14 -60.5q0 -28 13 -46.5
t40 -18.5h32v-51q-36 -14 -66 -14q-42 0 -70 22.5zM425 312q0 153 -135 153q-75 0 -112.5 -36t-45.5 -117h293z" />
    <glyph glyph-name="Ecaron" unicode="&#x11a;" horiz-adv-x="667" 
d="M79 0zM79 686h528v-83h-433v-211h389v-83h-389v-226h439v-83h-534v686zM186 868h90l58 -79l57 79h90l-105 -135h-84z" />
    <glyph glyph-name="ecaron" unicode="&#x11b;" 
d="M39 0zM101 55q-62 67 -62 208t62 208t189 67q114 0 170.5 -60.5t56.5 -194.5v-44h-387q5 -91 43.5 -134.5t116.5 -43.5q63 0 102 29t39 89h86q0 -92 -63.5 -141.5t-163.5 -49.5q-127 0 -189 67zM425 312q0 153 -135 153q-75 0 -112.5 -36t-45.5 -117h293zM130 723h90
l58 -79l57 79h90l-105 -135h-84z" />
    <glyph glyph-name="Gcircumflex" unicode="&#x11c;" horiz-adv-x="778" 
d="M47 0zM370 357h337v-357h-74l-7 76q-78 -88 -239 -88q-168 0 -254 88.5t-86 266.5q0 355 346 355q142 0 228 -63t86 -183h-97q0 83 -58 124t-159 41q-125 0 -186 -64t-61 -210v-2q1 -145 60.5 -208.5t180.5 -63.5q116 0 170.5 48t54.5 147v10h-242v83zM347 868h84
l105 -135h-90l-57 79l-58 -79h-90z" />
    <glyph glyph-name="gcircumflex" unicode="&#x11d;" 
d="M236 723h84l105 -135h-90l-57 79l-58 -79h-90zM60.5 -152.5q-42.5 29.5 -42.5 97.5q0 82 85 112q-24 13 -39.5 33.5t-15.5 47.5q0 39 27.5 59t60.5 28q-33 24 -52 59t-19 77q0 84 57 130.5t156 46.5q55 0 100 -18q65 31 76 91h84q0 -47 -27.5 -81t-74.5 -45
q56 -50 56 -124q0 -84 -57.5 -130.5t-156.5 -46.5h-84q-27 0 -41.5 -12t-14.5 -31t14.5 -31t41.5 -12h211q62 0 98 -37.5t36 -90.5q0 -38 -17 -73t-54.5 -57t-94.5 -22h-212q-58 0 -100.5 29.5zM373 280.5q32 28.5 32 80.5t-32 80.5t-94 28.5t-94 -28.5t-32 -80.5t32 -80.5
t94 -28.5t94 28.5zM375 -111q33 0 55 18t22 48t-17.5 47.5t-46.5 17.5h-219q-29 0 -46 -17.5t-17 -47.5t17 -48t46 -18h206z" />
    <glyph glyph-name="Gbreve" unicode="&#x11e;" horiz-adv-x="778" 
d="M47 0zM370 357h337v-357h-74l-7 76q-78 -88 -239 -88q-168 0 -254 88.5t-86 266.5q0 355 346 355q142 0 228 -63t86 -183h-97q0 83 -58 124t-159 41q-125 0 -186 -64t-61 -210v-2q1 -145 60.5 -208.5t180.5 -63.5q116 0 170.5 48t54.5 147v10h-242v83zM277 785.5
q-34 34.5 -34 82.5h61q12 -53 84 -53q43 0 62.5 16t22.5 37h61q0 -48 -34.5 -82.5t-111.5 -34.5t-111 34.5z" />
    <glyph glyph-name="gbreve" unicode="&#x11f;" 
d="M18 0zM60.5 -152.5q-42.5 29.5 -42.5 97.5q0 82 85 112q-24 13 -39.5 33.5t-15.5 47.5q0 39 27.5 59t60.5 28q-33 24 -52 59t-19 77q0 84 57 130.5t156 46.5q55 0 100 -18q65 31 76 91h84q0 -47 -27.5 -81t-74.5 -45q56 -50 56 -124q0 -84 -57.5 -130.5t-156.5 -46.5h-84
q-27 0 -41.5 -12t-14.5 -31t14.5 -31t41.5 -12h211q62 0 98 -37.5t36 -90.5q0 -38 -17 -73t-54.5 -57t-94.5 -22h-212q-58 0 -100.5 29.5zM373 280.5q32 28.5 32 80.5t-32 80.5t-94 28.5t-94 -28.5t-32 -80.5t32 -80.5t94 -28.5t94 28.5zM375 -111q33 0 55 18t22 48
t-17.5 47.5t-46.5 17.5h-219q-29 0 -46 -17.5t-17 -47.5t17 -48t46 -18h206zM166 640.5q-34 34.5 -34 82.5h61q12 -53 84 -53q43 0 62.5 16t22.5 37h61q0 -48 -34.5 -82.5t-111.5 -34.5t-111 34.5z" />
    <glyph glyph-name="Gdotaccent" unicode="&#x120;" horiz-adv-x="778" 
d="M47 0zM370 357h337v-357h-74l-7 76q-78 -88 -239 -88q-168 0 -254 88.5t-86 266.5q0 355 346 355q142 0 228 -63t86 -183h-97q0 83 -58 124t-159 41q-125 0 -186 -64t-61 -210v-2q1 -145 60.5 -208.5t180.5 -63.5q116 0 170.5 48t54.5 147v10h-242v83zM345 868h87v-95
h-87v95z" />
    <glyph glyph-name="gdotaccent" unicode="&#x121;" 
d="M18 0zM60.5 -152.5q-42.5 29.5 -42.5 97.5q0 82 85 112q-24 13 -39.5 33.5t-15.5 47.5q0 39 27.5 59t60.5 28q-33 24 -52 59t-19 77q0 84 57 130.5t156 46.5q55 0 100 -18q65 31 76 91h84q0 -47 -27.5 -81t-74.5 -45q56 -50 56 -124q0 -84 -57.5 -130.5t-156.5 -46.5h-84
q-27 0 -41.5 -12t-14.5 -31t14.5 -31t41.5 -12h211q62 0 98 -37.5t36 -90.5q0 -38 -17 -73t-54.5 -57t-94.5 -22h-212q-58 0 -100.5 29.5zM373 280.5q32 28.5 32 80.5t-32 80.5t-94 28.5t-94 -28.5t-32 -80.5t32 -80.5t94 -28.5t94 28.5zM375 -111q33 0 55 18t22 48
t-17.5 47.5t-46.5 17.5h-219q-29 0 -46 -17.5t-17 -47.5t17 -48t46 -18h206zM234 723h87v-95h-87v95z" />
    <glyph glyph-name="Gcommaaccent" unicode="&#x122;" horiz-adv-x="778" 
d="M47 0zM370 357h337v-357h-74l-7 76q-78 -88 -239 -88q-168 0 -254 88.5t-86 266.5q0 355 346 355q142 0 228 -63t86 -183h-97q0 83 -58 124t-159 41q-125 0 -186 -64t-61 -210v-2q1 -145 60.5 -208.5t180.5 -63.5q116 0 170.5 48t54.5 147v10h-242v83zM382 -149h-37v91
h88v-84l-43 -88h-45z" />
    <glyph glyph-name="gcommaaccent" unicode="&#x123;" 
d="M237 692l43 88h45l-37 -81h37v-91h-88v84zM60.5 -152.5q-42.5 29.5 -42.5 97.5q0 82 85 112q-24 13 -39.5 33.5t-15.5 47.5q0 39 27.5 59t60.5 28q-33 24 -52 59t-19 77q0 84 57 130.5t156 46.5q55 0 100 -18q65 31 76 91h84q0 -47 -27.5 -81t-74.5 -45q56 -50 56 -124
q0 -84 -57.5 -130.5t-156.5 -46.5h-84q-27 0 -41.5 -12t-14.5 -31t14.5 -31t41.5 -12h211q62 0 98 -37.5t36 -90.5q0 -38 -17 -73t-54.5 -57t-94.5 -22h-212q-58 0 -100.5 29.5zM373 280.5q32 28.5 32 80.5t-32 80.5t-94 28.5t-94 -28.5t-32 -80.5t32 -80.5t94 -28.5
t94 28.5zM375 -111q33 0 55 18t22 48t-17.5 47.5t-46.5 17.5h-219q-29 0 -46 -17.5t-17 -47.5t17 -48t46 -18h206z" />
    <glyph glyph-name="Hcircumflex" unicode="&#x124;" horiz-adv-x="722" 
d="M79 0zM79 686h95v-294h374v294h95v-686h-95v309h-374v-309h-95v686zM319 868h84l105 -135h-90l-57 79l-58 -79h-90z" />
    <glyph glyph-name="hcircumflex" unicode="&#x125;" 
d="M0 0zM67 723h88v-256h7q55 71 166 71q164 0 164 -179v-359h-88v353q0 63 -28 87.5t-81 24.5q-38 0 -70 -18.5t-51 -53.5t-19 -82v-311h-88v723zM69 883h84l105 -135h-90l-57 79l-58 -79h-90z" />
    <glyph glyph-name="Hbar" unicode="&#x126;" horiz-adv-x="722" 
d="M79 526h-70v72h70v88h95v-88h374v88h95v-88h70v-72h-70v-526h-95v309h-374v-309h-95v526zM548 392v134h-374v-134h374z" />
    <glyph glyph-name="hbar" unicode="&#x127;" 
d="M67 596h-66v62h66v65h88v-65h140v-62h-140v-129h7q55 71 166 71q164 0 164 -179v-359h-88v353q0 63 -28 87.5t-81 24.5q-38 0 -70 -18.5t-51 -53.5t-19 -82v-311h-88v596z" />
    <glyph glyph-name="Itilde" unicode="&#x128;" horiz-adv-x="278" 
d="M0 0zM92 686h95v-686h-95v686zM-4 838.5q21 29.5 64 29.5q19 0 36.5 -4t42.5 -12q43 -15 70 -15q25 0 28 31h65q0 -45 -21 -74.5t-64 -29.5q-19 0 -36.5 4t-42.5 12q-43 15 -70 15q-25 0 -28 -31h-65q0 45 21 74.5z" />
    <glyph glyph-name="itilde" unicode="&#x129;" horiz-adv-x="278" 
d="M-3 693.5q21 29.5 64 29.5q19 0 36.5 -4t42.5 -12q43 -15 70 -15q25 0 28 31h65q0 -45 -21 -74.5t-64 -29.5q-19 0 -36.5 4t-42.5 12q-43 15 -70 15q-25 0 -28 -31h-65q0 45 21 74.5zM95 526h88v-526h-88v526z" />
    <glyph glyph-name="Imacron" unicode="&#x12a;" horiz-adv-x="278" 
d="M0 0zM92 686h95v-686h-95v686zM-14 844h305v-72h-305v72z" />
    <glyph glyph-name="imacron" unicode="&#x12b;" horiz-adv-x="278" 
d="M12 711h254v-72h-254v72zM95 526h88v-526h-88v526z" />
    <glyph glyph-name="Ibreve" unicode="&#x12c;" horiz-adv-x="278" 
d="M0 0zM92 686h95v-686h-95v686zM27 785.5q-34 34.5 -34 82.5h61q12 -53 84 -53q43 0 62.5 16t22.5 37h61q0 -48 -34.5 -82.5t-111.5 -34.5t-111 34.5z" />
    <glyph glyph-name="ibreve" unicode="&#x12d;" horiz-adv-x="278" 
d="M28 640.5q-34 34.5 -34 82.5h61q12 -53 84 -53q43 0 62.5 16t22.5 37h61q0 -48 -34.5 -82.5t-111.5 -34.5t-111 34.5zM95 526h88v-526h-88v526z" />
    <glyph glyph-name="Iogonek" unicode="&#x12e;" horiz-adv-x="278" 
d="M204 -125v-51q-33 -14 -61 -14q-42 0 -72 21.5t-30 68.5q0 32 13.5 55t38.5 45h-1v686h95v-686h-30q-15 -14 -26.5 -32.5t-11.5 -37.5q0 -23 13 -39t40 -16h32z" />
    <glyph glyph-name="iogonek" unicode="&#x12f;" horiz-adv-x="278" 
d="M182 628h-87v95h87v-95zM200 -125v-51q-33 -14 -61 -14q-42 0 -72 21.5t-30 68.5q0 33 14.5 56.5t41.5 47.5h2v522h88v-526h-30q-15 -14 -26.5 -32.5t-11.5 -37.5q0 -23 13 -39t40 -16h32z" />
    <glyph glyph-name="Idotaccent" unicode="&#x130;" horiz-adv-x="278" 
d="M92 0zM92 686h95v-686h-95v686zM95 868h87v-95h-87v95z" />
    <glyph glyph-name="dotlessi" unicode="&#x131;" horiz-adv-x="278" 
d="M95 526h88v-526h-88v526z" />
    <glyph glyph-name="IJ" unicode="&#x132;" horiz-adv-x="778" 
d="M92 0zM92 686h95v-686h-95v686zM358 38q-51 50 -51 145v25h95v-30q0 -54 26 -81.5t75 -27.5q50 0 76 31.5t26 93.5v492h95v-487q0 -105 -51 -158t-146 -53q-94 0 -145 50z" />
    <glyph glyph-name="ij" unicode="&#x133;" horiz-adv-x="444" 
d="M67 0zM67 723h88v-98h-88v98zM67 526h88v-526h-88v526zM289 723h88v-98h-88v98zM198 -170v57h44q47 0 47 48v591h88v-587q0 -52 -25.5 -86.5t-84.5 -34.5q-35 0 -69 12z" />
    <glyph glyph-name="Jcircumflex" unicode="&#x134;" horiz-adv-x="500" 
d="M29 0zM80 38q-51 50 -51 145v25h95v-30q0 -54 26 -81.5t75 -27.5q50 0 76 31.5t26 93.5v492h95v-487q0 -105 -51 -158t-146 -53q-94 0 -145 50zM333 868h84l105 -135h-90l-57 79l-58 -79h-90z" />
    <glyph glyph-name="jcircumflex" unicode="&#x135;" horiz-adv-x="222" 
d="M70 723h84l105 -135h-90l-57 79l-58 -79h-90zM-24 -170v57h44q47 0 47 48v591h88v-587q0 -52 -25.5 -86.5t-84.5 -34.5q-35 0 -69 12z" />
    <glyph glyph-name="Kcommaaccent" unicode="&#x136;" horiz-adv-x="667" 
d="M79 0zM79 686h95v-378l363 378h118l-261 -274l270 -412h-113l-223 344l-154 -144v-200h-95v686zM327 -149h-37v91h88v-84l-43 -88h-45z" />
    <glyph glyph-name="kcommaaccent" unicode="&#x137;" horiz-adv-x="500" 
d="M67 0zM67 723h88v-455l223 258h109l-181 -207l191 -319h-102l-144 256l-96 -91v-165h-88v723zM268 -149h-37v91h88v-84l-43 -88h-45z" />
    <glyph glyph-name="kgreenlandic" unicode="&#x138;" horiz-adv-x="500" 
d="M67 526h88v-258l223 258h109l-181 -207l191 -319h-102l-144 256l-96 -91v-165h-88v526z" />
    <glyph glyph-name="Lacute" unicode="&#x139;" 
d="M79 0zM79 686h95v-603h352v-83h-447v686zM175 868h96l1 -3l-108 -129h-75z" />
    <glyph glyph-name="lacute" unicode="&#x13a;" horiz-adv-x="222" 
d="M67 0zM67 723h88v-723h-88v723zM159 883h96l1 -3l-108 -129h-75z" />
    <glyph glyph-name="Lcommaaccent" unicode="&#x13b;" 
d="M79 0zM79 686h95v-603h352v-83h-447v686zM296 -149h-37v91h88v-84l-43 -88h-45z" />
    <glyph glyph-name="lcommaaccent" unicode="&#x13c;" horiz-adv-x="222" 
d="M67 0zM67 723h88v-723h-88v723zM104 -149h-37v91h88v-84l-43 -88h-45z" />
    <glyph glyph-name="Lcaron" unicode="&#x13d;" 
d="M79 686h95v-603h352v-83h-447v686zM354 595h-34v91h85v-84l-41 -112h-44z" />
    <glyph glyph-name="lcaron" unicode="&#x13e;" horiz-adv-x="292" 
d="M67 723h88v-723h-88v723zM241 595h-34v91h85v-84l-41 -112h-44z" />
    <glyph glyph-name="Ldot" unicode="&#x13f;" 
d="M79 0zM79 686h95v-603h352v-83h-447v686zM351 526h100v-108h-100v108z" />
    <glyph glyph-name="ldot" unicode="&#x140;" horiz-adv-x="283" 
d="M67 0zM67 723h88v-723h-88v723zM206 411h100v-108h-100v108z" />
    <glyph glyph-name="Lslash" unicode="&#x141;" 
d="M79 265l-74 -49v81l74 49v340h95v-277l167 111v-82l-167 -111v-244h352v-83h-447v265z" />
    <glyph glyph-name="lslash" unicode="&#x142;" horiz-adv-x="222" 
d="M67 283l-67 -56v77l67 56v363h88v-290l66 55v-77l-66 -55v-356h-88v283z" />
    <glyph glyph-name="Nacute" unicode="&#x143;" horiz-adv-x="722" 
d="M79 0zM79 686h85l362 -478l24 -32l4 1v47v462h89v-686h-81l-364 484l-26 35l-4 -1v-47v-471h-89v686zM409 868h96l1 -3l-108 -129h-75z" />
    <glyph glyph-name="nacute" unicode="&#x144;" 
d="M67 0zM67 526h67l10 -71h7q58 83 177 83q79 0 121.5 -42.5t42.5 -136.5v-359h-88v353q0 63 -28 87.5t-81 24.5q-38 0 -70 -18.5t-51 -53.5t-19 -82v-311h-88v526zM326 723h96l1 -3l-108 -129h-75z" />
    <glyph glyph-name="Ncommaaccent" unicode="&#x145;" horiz-adv-x="722" 
d="M79 0zM79 686h85l362 -478l24 -32l4 1v47v462h89v-686h-81l-364 484l-26 35l-4 -1v-47v-471h-89v686zM354 -149h-37v91h88v-84l-43 -88h-45z" />
    <glyph glyph-name="ncommaaccent" unicode="&#x146;" 
d="M67 0zM67 526h67l10 -71h7q58 83 177 83q79 0 121.5 -42.5t42.5 -136.5v-359h-88v353q0 63 -28 87.5t-81 24.5q-38 0 -70 -18.5t-51 -53.5t-19 -82v-311h-88v526zM271 -149h-37v91h88v-84l-43 -88h-45z" />
    <glyph glyph-name="Ncaron" unicode="&#x147;" horiz-adv-x="722" 
d="M79 0zM79 686h85l362 -478l24 -32l4 1v47v462h89v-686h-81l-364 484l-26 35l-4 -1v-47v-471h-89v686zM213 868h90l58 -79l57 79h90l-105 -135h-84z" />
    <glyph glyph-name="ncaron" unicode="&#x148;" 
d="M67 0zM67 526h67l10 -71h7q58 83 177 83q79 0 121.5 -42.5t42.5 -136.5v-359h-88v353q0 63 -28 87.5t-81 24.5q-38 0 -70 -18.5t-51 -53.5t-19 -82v-311h-88v526zM130 723h90l58 -79l57 79h90l-105 -135h-84z" />
    <glyph glyph-name="napostrophe" unicode="&#x149;" horiz-adv-x="604" 
d="M34 595h-34v91h85v-84l-41 -112h-44zM115 526h67l10 -71h7q58 83 177 83q79 0 121.5 -42.5t42.5 -136.5v-359h-88v353q0 63 -28 87.5t-81 24.5q-38 0 -70 -18.5t-51 -53.5t-19 -82v-311h-88v526z" />
    <glyph glyph-name="Eng" unicode="&#x14a;" horiz-adv-x="722" 
d="M464 -170v57h43q47 0 47 48v65l-354 485l-14 17l-14 16l-4 -1q2 -32 2 -47l-2 -470h-89v686h85l362 -478l24 -32l4 1v47v462h89v-747q0 -52 -25.5 -86.5t-84.5 -34.5q-35 0 -69 12z" />
    <glyph glyph-name="eng" unicode="&#x14b;" 
d="M313 -170v57h44q47 0 47 48v418q0 63 -28 87.5t-81 24.5q-38 0 -70 -18.5t-51 -53.5t-19 -82v-311h-88v526h67l10 -71h7q58 83 177 83q79 0 121.5 -42.5t42.5 -136.5v-420q0 -52 -25.5 -86.5t-84.5 -34.5q-35 0 -69 12z" />
    <glyph glyph-name="Omacron" unicode="&#x14c;" horiz-adv-x="778" 
d="M47 0zM136.5 77.5q-89.5 89.5 -89.5 265.5t89.5 265.5t252.5 89.5q164 0 253.5 -89.5t89.5 -265.5q0 -175 -89.5 -265t-253.5 -90q-163 0 -252.5 89.5zM571 133.5q63 64.5 63 205.5v4q-1 143 -64 208.5t-181 65.5q-117 0 -180 -65.5t-64 -208.5v-4q0 -141 63 -205.5
t181 -64.5q119 0 182 64.5zM236 844h305v-72h-305v72z" />
    <glyph glyph-name="omacron" unicode="&#x14d;" 
d="M35 0zM96 55.5q-61 67.5 -61 207.5t61 207.5t182 67.5t182 -67.5t61 -207.5t-61 -207.5t-182 -67.5t-182 67.5zM394 107.5q36 46.5 36 151.5v8q0 105 -36 151.5t-116 46.5t-116 -46.5t-36 -151.5v-8q0 -105 36 -151.5t116 -46.5t116 46.5zM125 699h305v-72h-305v72z" />
    <glyph glyph-name="Obreve" unicode="&#x14e;" horiz-adv-x="778" 
d="M47 0zM136.5 77.5q-89.5 89.5 -89.5 265.5t89.5 265.5t252.5 89.5q164 0 253.5 -89.5t89.5 -265.5q0 -175 -89.5 -265t-253.5 -90q-163 0 -252.5 89.5zM571 133.5q63 64.5 63 205.5v4q-1 143 -64 208.5t-181 65.5q-117 0 -180 -65.5t-64 -208.5v-4q0 -141 63 -205.5
t181 -64.5q119 0 182 64.5zM277 785.5q-34 34.5 -34 82.5h61q12 -53 84 -53q43 0 62.5 16t22.5 37h61q0 -48 -34.5 -82.5t-111.5 -34.5t-111 34.5z" />
    <glyph glyph-name="obreve" unicode="&#x14f;" 
d="M35 0zM96 55.5q-61 67.5 -61 207.5t61 207.5t182 67.5t182 -67.5t61 -207.5t-61 -207.5t-182 -67.5t-182 67.5zM394 107.5q36 46.5 36 151.5v8q0 105 -36 151.5t-116 46.5t-116 -46.5t-36 -151.5v-8q0 -105 36 -151.5t116 -46.5t116 46.5zM166 640.5q-34 34.5 -34 82.5
h61q12 -53 84 -53q43 0 62.5 16t22.5 37h61q0 -48 -34.5 -82.5t-111.5 -34.5t-111 34.5z" />
    <glyph glyph-name="Ohungarumlaut" unicode="&#x150;" horiz-adv-x="778" 
d="M47 0zM136.5 77.5q-89.5 89.5 -89.5 265.5t89.5 265.5t252.5 89.5q164 0 253.5 -89.5t89.5 -265.5q0 -175 -89.5 -265t-253.5 -90q-163 0 -252.5 89.5zM571 133.5q63 64.5 63 205.5v4q-1 143 -64 208.5t-181 65.5q-117 0 -180 -65.5t-64 -208.5v-4q0 -141 63 -205.5
t181 -64.5q119 0 182 64.5zM343 868h97l1 -3l-84 -129h-76zM482 868h97l1 -3l-84 -129h-76z" />
    <glyph glyph-name="ohungarumlaut" unicode="&#x151;" 
d="M35 0zM96 55.5q-61 67.5 -61 207.5t61 207.5t182 67.5t182 -67.5t61 -207.5t-61 -207.5t-182 -67.5t-182 67.5zM394 107.5q36 46.5 36 151.5v8q0 105 -36 151.5t-116 46.5t-116 -46.5t-36 -151.5v-8q0 -105 36 -151.5t116 -46.5t116 46.5zM232 723h97l1 -3l-84 -129h-76z
M371 723h97l1 -3l-84 -129h-76z" />
    <glyph glyph-name="OE" unicode="&#x152;" horiz-adv-x="1000" 
d="M118.5 77.5q-71.5 89.5 -71.5 265.5t71.5 265.5t202.5 89.5q118 0 186 -88v76h432v-80h-337v-215h282v-80h-282v-231h344v-80h-439v76q-67 -88 -186 -88q-131 0 -202.5 89.5zM462.5 133.5q44.5 64.5 44.5 209.5t-44.5 209.5t-128.5 64.5q-95 0 -142 -63.5t-47 -210.5
t47 -210.5t142 -63.5q84 0 128.5 64.5z" />
    <glyph glyph-name="oe" unicode="&#x153;" horiz-adv-x="944" 
d="M96 55.5q-61 67.5 -61 207.5t61 207.5t182 67.5q137 0 197 -96q61 96 206 96q114 0 170.5 -60.5t56.5 -194.5v-44h-387q5 -91 43.5 -134.5t116.5 -43.5q63 0 102 29t39 89h86q0 -92 -63.5 -141.5t-163.5 -49.5q-145 0 -206 95q-59 -95 -197 -95q-121 0 -182 67.5z
M393 108q36 47 37 153q-1 108 -37 156t-115 48q-80 0 -116 -46.5t-36 -150.5v-5q0 -107 36 -154.5t116 -47.5q79 0 115 47zM816 312q0 153 -135 153q-75 0 -112.5 -36t-45.5 -117h293z" />
    <glyph glyph-name="Racute" unicode="&#x154;" horiz-adv-x="722" 
d="M79 0zM79 686h357q103 0 158 -53t55 -142q0 -70 -33.5 -121t-92.5 -73l158 -297h-106l-149 283h-252v-283h-95v686zM431 366q56 0 89 33t33 91q0 54 -31 83.5t-91 29.5h-257v-237h257zM409 868h96l1 -3l-108 -129h-75z" />
    <glyph glyph-name="racute" unicode="&#x155;" horiz-adv-x="333" 
d="M67 0zM67 526h67l10 -79h6q15 39 45 65t79 26q17 0 30.5 -3.5t16.5 -4.5v-85h-37q-56 0 -92.5 -32.5t-36.5 -101.5v-311h-88v526zM215 723h96l1 -3l-108 -129h-75z" />
    <glyph glyph-name="Rcommaaccent" unicode="&#x156;" horiz-adv-x="722" 
d="M79 0zM79 686h357q103 0 158 -53t55 -142q0 -70 -33.5 -121t-92.5 -73l158 -297h-106l-149 283h-252v-283h-95v686zM431 366q56 0 89 33t33 91q0 54 -31 83.5t-91 29.5h-257v-237h257zM354 -149h-37v91h88v-84l-43 -88h-45z" />
    <glyph glyph-name="rcommaaccent" unicode="&#x157;" horiz-adv-x="333" 
d="M67 0zM67 526h67l10 -79h6q15 39 45 65t79 26q17 0 30.5 -3.5t16.5 -4.5v-85h-37q-56 0 -92.5 -32.5t-36.5 -101.5v-311h-88v526zM104 -149h-37v91h88v-84l-43 -88h-45z" />
    <glyph glyph-name="Rcaron" unicode="&#x158;" horiz-adv-x="722" 
d="M79 0zM79 686h357q103 0 158 -53t55 -142q0 -70 -33.5 -121t-92.5 -73l158 -297h-106l-149 283h-252v-283h-95v686zM431 366q56 0 89 33t33 91q0 54 -31 83.5t-91 29.5h-257v-237h257zM213 868h90l58 -79l57 79h90l-105 -135h-84z" />
    <glyph glyph-name="rcaron" unicode="&#x159;" horiz-adv-x="333" 
d="M19 0zM67 526h67l10 -79h6q15 39 45 65t79 26q17 0 30.5 -3.5t16.5 -4.5v-85h-37q-56 0 -92.5 -32.5t-36.5 -101.5v-311h-88v526zM19 723h90l58 -79l57 79h90l-105 -135h-84z" />
    <glyph glyph-name="Sacute" unicode="&#x15a;" horiz-adv-x="667" 
d="M49 0zM128 38q-79 50 -79 156l1 20h94q0 -1 -1 -7t-1 -14q0 -61 50.5 -92.5t134.5 -31.5q94 0 144 29.5t50 84.5q0 37 -26 61.5t-65.5 38.5t-106.5 31q-83 21 -134 40.5t-87 58t-36 101.5q0 90 75 137t192 47t190 -47.5t73 -145.5v-12h-93v15q0 51 -46.5 80t-120.5 29
q-79 0 -126.5 -24t-47.5 -72q0 -35 25.5 -57t63 -35.5t104.5 -30.5q83 -21 135.5 -41t89 -58.5t36.5 -100.5q0 -110 -76.5 -160t-207.5 -50q-125 0 -204 50zM382 868h96l1 -3l-108 -129h-75z" />
    <glyph glyph-name="sacute" unicode="&#x15b;" horiz-adv-x="500" 
d="M31 0zM125.5 9.5q-48.5 21.5 -71.5 56.5t-23 76q0 12 0.5 16.5t0.5 5.5h87v-10q0 -47 37 -70.5t96 -23.5q51 0 84.5 20.5t33.5 57.5q0 29 -19 47.5t-47 29t-76 22.5q-58 15 -94.5 30t-62 44.5t-25.5 76.5q0 69 56.5 109.5t152.5 40.5q60 0 104 -19.5t66.5 -52t22.5 -72.5
l-1 -19h-86v9q0 35 -27.5 58t-88.5 23q-60 0 -84 -21.5t-24 -49.5q0 -23 17 -38t42 -24t70 -20q62 -16 101 -31.5t66.5 -47t27.5 -83.5q0 -81 -58.5 -121.5t-155.5 -40.5q-73 0 -121.5 21.5zM298 723h96l1 -3l-108 -129h-75z" />
    <glyph glyph-name="Scircumflex" unicode="&#x15c;" horiz-adv-x="667" 
d="M49 0zM128 38q-79 50 -79 156l1 20h94q0 -1 -1 -7t-1 -14q0 -61 50.5 -92.5t134.5 -31.5q94 0 144 29.5t50 84.5q0 37 -26 61.5t-65.5 38.5t-106.5 31q-83 21 -134 40.5t-87 58t-36 101.5q0 90 75 137t192 47t190 -47.5t73 -145.5v-12h-93v15q0 51 -46.5 80t-120.5 29
q-79 0 -126.5 -24t-47.5 -72q0 -35 25.5 -57t63 -35.5t104.5 -30.5q83 -21 135.5 -41t89 -58.5t36.5 -100.5q0 -110 -76.5 -160t-207.5 -50q-125 0 -204 50zM292 868h84l105 -135h-90l-57 79l-58 -79h-90z" />
    <glyph glyph-name="scircumflex" unicode="&#x15d;" horiz-adv-x="500" 
d="M31 0zM125.5 9.5q-48.5 21.5 -71.5 56.5t-23 76q0 12 0.5 16.5t0.5 5.5h87v-10q0 -47 37 -70.5t96 -23.5q51 0 84.5 20.5t33.5 57.5q0 29 -19 47.5t-47 29t-76 22.5q-58 15 -94.5 30t-62 44.5t-25.5 76.5q0 69 56.5 109.5t152.5 40.5q60 0 104 -19.5t66.5 -52t22.5 -72.5
l-1 -19h-86v9q0 35 -27.5 58t-88.5 23q-60 0 -84 -21.5t-24 -49.5q0 -23 17 -38t42 -24t70 -20q62 -16 101 -31.5t66.5 -47t27.5 -83.5q0 -81 -58.5 -121.5t-155.5 -40.5q-73 0 -121.5 21.5zM208 723h84l105 -135h-90l-57 79l-58 -79h-90z" />
    <glyph glyph-name="Scedilla" unicode="&#x15e;" horiz-adv-x="667" 
d="M242 -174v49h100q20 0 30.5 5.5t10.5 18.5q0 12 -8.5 18t-30.5 6h-51l12 66q-115 5 -185.5 55t-70.5 150l1 20h94q0 -1 -1 -7t-1 -14q0 -61 50.5 -92.5t134.5 -31.5q94 0 144 29.5t50 84.5q0 37 -26 61.5t-65.5 38.5t-106.5 31q-83 21 -134 40.5t-87 58t-36 101.5
q0 90 75 137t192 47t190 -47.5t73 -145.5v-12h-93v15q0 51 -46.5 80t-120.5 29q-79 0 -126.5 -24t-47.5 -72q0 -35 25.5 -57t63 -35.5t104.5 -30.5q83 -21 135.5 -41t89 -58.5t36.5 -100.5q0 -102 -66.5 -152.5t-182.5 -56.5l-4 -25q92 -6 92 -65q0 -45 -36 -63t-82 -18
q-52 0 -95 8z" />
    <glyph glyph-name="scedilla" unicode="&#x15f;" horiz-adv-x="500" 
d="M411.5 35q-49.5 -40 -134.5 -46l-4 -25q92 -6 92 -65q0 -45 -36 -63t-82 -18q-52 0 -95 8v49h100q20 0 30.5 5.5t10.5 18.5q0 12 -8.5 18t-30.5 6h-51l12 66q-92 7 -138 50.5t-46 102.5q0 12 0.5 16.5t0.5 5.5h87v-10q0 -47 37 -70.5t96 -23.5q51 0 84.5 20.5t33.5 57.5
q0 29 -19 47.5t-47 29t-76 22.5q-58 15 -94.5 30t-62 44.5t-25.5 76.5q0 69 56.5 109.5t152.5 40.5q60 0 104 -19.5t66.5 -52t22.5 -72.5l-1 -19h-86v9q0 35 -27.5 58t-88.5 23q-60 0 -84 -21.5t-24 -49.5q0 -23 17 -38t42 -24t70 -20q62 -16 101 -31.5t66.5 -47t27.5 -83.5
q0 -75 -49.5 -115z" />
    <glyph glyph-name="Scaron" unicode="&#x160;" horiz-adv-x="667" 
d="M49 0zM128 38q-79 50 -79 156l1 20h94q0 -1 -1 -7t-1 -14q0 -61 50.5 -92.5t134.5 -31.5q94 0 144 29.5t50 84.5q0 37 -26 61.5t-65.5 38.5t-106.5 31q-83 21 -134 40.5t-87 58t-36 101.5q0 90 75 137t192 47t190 -47.5t73 -145.5v-12h-93v15q0 51 -46.5 80t-120.5 29
q-79 0 -126.5 -24t-47.5 -72q0 -35 25.5 -57t63 -35.5t104.5 -30.5q83 -21 135.5 -41t89 -58.5t36.5 -100.5q0 -110 -76.5 -160t-207.5 -50q-125 0 -204 50zM186 868h90l58 -79l57 79h90l-105 -135h-84z" />
    <glyph glyph-name="scaron" unicode="&#x161;" horiz-adv-x="500" 
d="M31 0zM125.5 9.5q-48.5 21.5 -71.5 56.5t-23 76q0 12 0.5 16.5t0.5 5.5h87v-10q0 -47 37 -70.5t96 -23.5q51 0 84.5 20.5t33.5 57.5q0 29 -19 47.5t-47 29t-76 22.5q-58 15 -94.5 30t-62 44.5t-25.5 76.5q0 69 56.5 109.5t152.5 40.5q60 0 104 -19.5t66.5 -52t22.5 -72.5
l-1 -19h-86v9q0 35 -27.5 58t-88.5 23q-60 0 -84 -21.5t-24 -49.5q0 -23 17 -38t42 -24t70 -20q62 -16 101 -31.5t66.5 -47t27.5 -83.5q0 -81 -58.5 -121.5t-155.5 -40.5q-73 0 -121.5 21.5zM102 723h90l58 -79l57 79h90l-105 -135h-84z" />
    <glyph glyph-name="uni0162" unicode="&#x162;" horiz-adv-x="611" 
d="M335 0l-6 -36q92 -6 92 -65q0 -45 -36 -63t-82 -18q-52 0 -95 8v49h100q20 0 30.5 5.5t10.5 18.5q0 12 -8.5 18t-30.5 6h-51l14 77h-15v603h-236v83h567v-83h-236v-603h-18z" />
    <glyph glyph-name="uni0163" unicode="&#x163;" horiz-adv-x="278" 
d="M265 -101q0 -45 -36 -63t-82 -18q-52 0 -95 8v49h100q20 0 30.5 5.5t10.5 18.5q0 12 -8.5 18t-30.5 6h-51l16 87q-19 15 -28 38.5t-9 51.5v353h-64v73h65l19 146h68v-146h89v-73h-89v-345q0 -47 44 -47h45v-58q-13 -6 -34 -10t-39 -4h-9l-4 -25q92 -6 92 -65z" />
    <glyph glyph-name="Tcaron" unicode="&#x164;" horiz-adv-x="611" 
d="M22 0zM258 603h-236v83h567v-83h-236v-603h-95v603zM158 868h90l58 -79l57 79h90l-105 -135h-84z" />
    <glyph glyph-name="tcaron" unicode="&#x165;" horiz-adv-x="375" 
d="M321 632h-34v91h85v-84l-41 -112h-44zM107 21q-25 32 -25 79v353h-64v73h65l19 146h68v-146h89v-73h-89v-345q0 -47 44 -47h45v-58q-13 -6 -34 -10t-39 -4q-54 0 -79 32z" />
    <glyph glyph-name="Tbar" unicode="&#x166;" horiz-adv-x="611" 
d="M258 381h-105v72h105v150h-236v83h567v-83h-236v-150h105v-72h-105v-381h-95v381z" />
    <glyph glyph-name="tbar" unicode="&#x167;" horiz-adv-x="278" 
d="M107 21q-25 32 -25 79v163h-64v62h64v128h-64v73h65l19 146h68v-146h89v-73h-89v-128h89v-62h-89v-155q0 -47 44 -47h45v-58q-13 -6 -34 -10t-39 -4q-54 0 -79 32z" />
    <glyph glyph-name="Utilde" unicode="&#x168;" horiz-adv-x="722" 
d="M79 0zM152 53q-73 65 -73 200v433h95v-438q0 -88 48.5 -133.5t137.5 -45.5q90 0 139 46t49 133v438h95v-433q0 -135 -73 -200t-210 -65q-135 0 -208 65zM218 838.5q21 29.5 64 29.5q19 0 36.5 -4t42.5 -12q43 -15 70 -15q25 0 28 31h65q0 -45 -21 -74.5t-64 -29.5
q-19 0 -36.5 4t-42.5 12q-43 15 -70 15q-25 0 -28 -31h-65q0 45 21 74.5z" />
    <glyph glyph-name="utilde" unicode="&#x169;" 
d="M64 0zM106.5 30.5q-42.5 42.5 -42.5 136.5v359h88v-353q0 -63 28 -87.5t81 -24.5q38 0 70 18.5t51 53.5t19 82v311h88v-526h-67l-10 71h-7q-58 -83 -177 -83q-79 0 -121.5 42.5zM134 693.5q21 29.5 64 29.5q19 0 36.5 -4t42.5 -12q43 -15 70 -15q25 0 28 31h65
q0 -45 -21 -74.5t-64 -29.5q-19 0 -36.5 4t-42.5 12q-43 15 -70 15q-25 0 -28 -31h-65q0 45 21 74.5z" />
    <glyph glyph-name="Umacron" unicode="&#x16a;" horiz-adv-x="722" 
d="M79 0zM152 53q-73 65 -73 200v433h95v-438q0 -88 48.5 -133.5t137.5 -45.5q90 0 139 46t49 133v438h95v-433q0 -135 -73 -200t-210 -65q-135 0 -208 65zM208 844h305v-72h-305v72z" />
    <glyph glyph-name="umacron" unicode="&#x16b;" 
d="M64 0zM106.5 30.5q-42.5 42.5 -42.5 136.5v359h88v-353q0 -63 28 -87.5t81 -24.5q38 0 70 18.5t51 53.5t19 82v311h88v-526h-67l-10 71h-7q-58 -83 -177 -83q-79 0 -121.5 42.5zM124 699h305v-72h-305v72z" />
    <glyph glyph-name="Ubreve" unicode="&#x16c;" horiz-adv-x="722" 
d="M79 0zM152 53q-73 65 -73 200v433h95v-438q0 -88 48.5 -133.5t137.5 -45.5q90 0 139 46t49 133v438h95v-433q0 -135 -73 -200t-210 -65q-135 0 -208 65zM249 785.5q-34 34.5 -34 82.5h61q12 -53 84 -53q43 0 62.5 16t22.5 37h61q0 -48 -34.5 -82.5t-111.5 -34.5
t-111 34.5z" />
    <glyph glyph-name="ubreve" unicode="&#x16d;" 
d="M64 0zM106.5 30.5q-42.5 42.5 -42.5 136.5v359h88v-353q0 -63 28 -87.5t81 -24.5q38 0 70 18.5t51 53.5t19 82v311h88v-526h-67l-10 71h-7q-58 -83 -177 -83q-79 0 -121.5 42.5zM165 640.5q-34 34.5 -34 82.5h61q12 -53 84 -53q43 0 62.5 16t22.5 37h61
q0 -48 -34.5 -82.5t-111.5 -34.5t-111 34.5z" />
    <glyph glyph-name="Uring" unicode="&#x16e;" horiz-adv-x="722" 
d="M79 0zM152 53q-73 65 -73 200v433h95v-438q0 -88 48.5 -133.5t137.5 -45.5q90 0 139 46t49 133v438h95v-433q0 -135 -73 -200t-210 -65q-135 0 -208 65zM291 738.5q-26 27.5 -26 68.5t26 68.5t70 27.5t70 -27.5t26 -68.5t-26 -68.5t-70 -27.5t-70 27.5zM397.5 771
q14.5 15 14.5 36t-14.5 36t-36.5 15t-36.5 -15t-14.5 -36t14.5 -36t36.5 -15t36.5 15z" />
    <glyph glyph-name="uring" unicode="&#x16f;" 
d="M64 0zM106.5 30.5q-42.5 42.5 -42.5 136.5v359h88v-353q0 -63 28 -87.5t81 -24.5q38 0 70 18.5t51 53.5t19 82v311h88v-526h-67l-10 71h-7q-58 -83 -177 -83q-79 0 -121.5 42.5zM207 593.5q-26 27.5 -26 68.5t26 68.5t70 27.5t70 -27.5t26 -68.5t-26 -68.5t-70 -27.5
t-70 27.5zM313.5 626q14.5 15 14.5 36t-14.5 36t-36.5 15t-36.5 -15t-14.5 -36t14.5 -36t36.5 -15t36.5 15z" />
    <glyph glyph-name="Uhungarumlaut" unicode="&#x170;" horiz-adv-x="722" 
d="M79 0zM152 53q-73 65 -73 200v433h95v-438q0 -88 48.5 -133.5t137.5 -45.5q90 0 139 46t49 133v438h95v-433q0 -135 -73 -200t-210 -65q-135 0 -208 65zM315 868h97l1 -3l-84 -129h-76zM454 868h97l1 -3l-84 -129h-76z" />
    <glyph glyph-name="uhungarumlaut" unicode="&#x171;" 
d="M64 0zM106.5 30.5q-42.5 42.5 -42.5 136.5v359h88v-353q0 -63 28 -87.5t81 -24.5q38 0 70 18.5t51 53.5t19 82v311h88v-526h-67l-10 71h-7q-58 -83 -177 -83q-79 0 -121.5 42.5zM231 723h97l1 -3l-84 -129h-76zM370 723h97l1 -3l-84 -129h-76z" />
    <glyph glyph-name="Uogonek" unicode="&#x172;" horiz-adv-x="722" 
d="M357 -160.5q-30 21.5 -30 68.5q0 46 31 80q-135 1 -207 65.5t-72 199.5v433h95v-438q0 -88 48.5 -133.5t137.5 -45.5q90 0 139 46t49 133v438h95v-433q0 -230 -215 -260q-23 -29 -23 -55q0 -23 13 -39t40 -16h32v-51q-33 -14 -61 -14q-42 0 -72 21.5z" />
    <glyph glyph-name="uogonek" unicode="&#x173;" 
d="M357 -162q-31 20 -31 62q0 38 25 66t70 41l-9 64h-7q-58 -83 -177 -83q-79 0 -121.5 42.5t-42.5 136.5v359h88v-353q0 -63 28 -87.5t81 -24.5q38 0 70 18.5t51 53.5t19 82v311h88v-526q-34 -10 -59.5 -30.5t-25.5 -45.5q0 -18 13 -29.5t40 -11.5h32v-51q-33 -14 -61 -14
q-40 0 -71 20z" />
    <glyph glyph-name="Wcircumflex" unicode="&#x174;" horiz-adv-x="944" 
d="M11 0zM11 686h100l138 -484q7 -26 15 -59t11 -46h5l20 105l106 484h136l110 -484l21 -105h5q3 13 11.5 46t15.5 59l133 484h95l-198 -686h-131l-108 481q-8 36 -14.5 68.5t-8.5 43.5h-5q-2 -12 -7.5 -45.5t-12.5 -66.5l-108 -481h-131zM430 868h84l105 -135h-90l-57 79
l-58 -79h-90z" />
    <glyph glyph-name="wcircumflex" unicode="&#x175;" horiz-adv-x="722" 
d="M5 0zM5 526h91l81 -298q8 -31 17.5 -70t13.5 -54h5l26 124l69 298h107l73 -298q7 -31 15.5 -70t11.5 -54h5q3 15 12 53t18 71l80 298h86l-158 -526h-96l-76 314l-24 108h-4q-3 -13 -9.5 -46t-13.5 -62l-75 -314h-97zM319 723h84l105 -135h-90l-57 79l-58 -79h-90z" />
    <glyph glyph-name="Ycircumflex" unicode="&#x176;" horiz-adv-x="667" 
d="M16 0zM287 284l-271 402h115l204 -314h5l203 314h109l-270 -402v-284h-95v284zM292 868h84l105 -135h-90l-57 79l-58 -79h-90z" />
    <glyph glyph-name="ycircumflex" unicode="&#x177;" horiz-adv-x="500" 
d="M13 0zM47 -174v57h35q102 0 134 117l-203 526h93l98 -263q14 -37 32.5 -92.5t24.5 -72.5h5q5 17 18.5 64t30.5 101l84 263h88l-173 -499q-35 -100 -79.5 -154.5t-117.5 -54.5q-44 0 -70 8zM208 723h84l105 -135h-90l-57 79l-58 -79h-90z" />
    <glyph glyph-name="Ydieresis" unicode="&#x178;" horiz-adv-x="667" 
d="M16 0zM287 284l-271 402h115l204 -314h5l203 314h109l-270 -402v-284h-95v284zM197 868h87v-95h-87v95zM384 868h87v-95h-87v95z" />
    <glyph glyph-name="Zacute" unicode="&#x179;" horiz-adv-x="611" 
d="M23 0zM23 49l412 554h-386v83h531v-49l-413 -554h422v-83h-566v49zM354 868h96l1 -3l-108 -129h-75z" />
    <glyph glyph-name="zacute" unicode="&#x17a;" horiz-adv-x="500" 
d="M24 0zM24 47l305 406h-284v73h413v-46l-306 -407h323v-73h-451v47zM298 723h96l1 -3l-108 -129h-75z" />
    <glyph glyph-name="Zdotaccent" unicode="&#x17b;" horiz-adv-x="611" 
d="M23 0zM23 49l412 554h-386v83h531v-49l-413 -554h422v-83h-566v49zM262 868h87v-95h-87v95z" />
    <glyph glyph-name="zdotaccent" unicode="&#x17c;" horiz-adv-x="500" 
d="M24 0zM24 47l305 406h-284v73h413v-46l-306 -407h323v-73h-451v47zM206 723h87v-95h-87v95z" />
    <glyph glyph-name="Zcaron" unicode="&#x17d;" horiz-adv-x="611" 
d="M23 0zM23 49l412 554h-386v83h531v-49l-413 -554h422v-83h-566v49zM158 868h90l58 -79l57 79h90l-105 -135h-84z" />
    <glyph glyph-name="zcaron" unicode="&#x17e;" horiz-adv-x="500" 
d="M24 0zM24 47l305 406h-284v73h413v-46l-306 -407h323v-73h-451v47zM102 723h90l58 -79l57 79h90l-105 -135h-84z" />
    <glyph glyph-name="longs" unicode="&#x17f;" horiz-adv-x="278" 
d="M86 453h-77v73h77v84q0 52 26 86.5t88 34.5q20 0 40.5 -3.5t34.5 -8.5v-61h-52q-49 0 -49 -48v-610h-88v453z" />
    <glyph glyph-name="uni018F" unicode="&#x18f;" horiz-adv-x="758" 
d="M129 64.5q-82 76.5 -82 244.5v62h563q-7 126 -68.5 186t-180.5 60q-98 0 -160.5 -39.5t-62.5 -123.5h-91q0 118 88 181t236 63q169 0 253 -88t84 -272q0 -180 -82 -265t-254 -85q-161 0 -243 76.5zM541.5 119q53.5 50 65.5 164h-462q0 -214 235 -214q108 0 161.5 50z" />
    <glyph glyph-name="florin" unicode="&#x192;" 
d="M71 -179.5q-20 3.5 -32 8.5l13 61h52q48 0 59 48l99 464h-77l15 73h77l29 135q11 52 44.5 86.5t95.5 34.5q20 0 40 -3.5t32 -8.5l-13 -61h-52q-48 0 -59 -48l-29 -135h101l-15 -73h-101l-99 -464q-11 -52 -44.5 -86.5t-95.5 -34.5q-20 0 -40 3.5z" />
    <glyph glyph-name="uni019D" unicode="&#x19d;" horiz-adv-x="722" 
d="M-11 -170v57h43q47 0 47 48v751h85l362 -478l24 -32l4 1v47v462h89v-686h-81l-350 466l-40 53l-4 -1v-72v-507q0 -52 -25.5 -86.5t-84.5 -34.5q-35 0 -69 12z" />
    <glyph glyph-name="Ohorn" unicode="&#x1a0;" horiz-adv-x="778" 
d="M747 662.5q-31 -45.5 -91 -68.5q76 -92 76 -251q0 -175 -89.5 -265t-253.5 -90q-163 0 -252.5 89.5t-89.5 265.5t89.5 265.5t252.5 89.5q137 0 220 -61q84 18 102 83h-53v108h120v-54q0 -66 -31 -111.5zM634 343q-1 143 -64 208.5t-181 65.5q-117 0 -180 -65.5
t-64 -208.5v-4q0 -141 63 -205.5t181 -64.5q119 0 182 64.5t63 205.5v4z" />
    <glyph glyph-name="ohorn" unicode="&#x1a1;" 
d="M626 686v-54q0 -72 -37 -120t-109 -68q41 -67 41 -181q0 -140 -61 -207.5t-182 -67.5t-182 67.5t-61 207.5t61 207.5t182 67.5q103 0 160 -47q102 17 121 87h-53v108h120zM430 267q0 105 -36 151.5t-116 46.5t-116 -46.5t-36 -151.5v-8q0 -105 36 -151.5t116 -46.5
t116 46.5t36 151.5v8z" />
    <glyph glyph-name="Uhorn" unicode="&#x1af;" horiz-adv-x="722" 
d="M762 868v-54q0 -65 -30 -110.5t-89 -68.5v-382q0 -135 -73 -200t-210 -65q-135 0 -208 65t-73 200v433h95v-438q0 -88 48.5 -133.5t137.5 -45.5q90 0 139 46t49 133v438h76q56 23 71 74h-53v108h120z" />
    <glyph glyph-name="uhorn" unicode="&#x1b0;" 
d="M606 723v-54q0 -64 -29.5 -109.5t-87.5 -68.5v-491h-67l-10 71h-7q-58 -83 -177 -83q-79 0 -121.5 42.5t-42.5 136.5v359h88v-353q0 -63 28 -87.5t81 -24.5q38 0 70 18.5t51 53.5t19 82v311h3q57 7 91 28.5t44 60.5h-53v108h120z" />
    <glyph glyph-name="uni01C4" unicode="&#x1c4;" horiz-adv-x="1333" 
d="M79 0zM79 686h254q165 0 254 -84.5t89 -258.5t-89 -258.5t-254 -84.5h-254v686zM333 83q119 0 181.5 60t63.5 198v2q0 139 -62.5 199.5t-182.5 60.5h-159v-520h159zM745 49l412 554h-386v83h531v-49l-413 -554h422v-83h-566v49zM880 868h90l58 -79l57 79h90l-105 -135
h-84z" />
    <glyph glyph-name="uni01C5" unicode="&#x1c5;" horiz-adv-x="1222" 
d="M79 0zM79 686h254q165 0 254 -84.5t89 -258.5t-89 -258.5t-254 -84.5h-254v686zM333 83q119 0 181.5 60t63.5 198v2q0 139 -62.5 199.5t-182.5 60.5h-159v-520h159zM746 47l305 406h-284v73h413v-46l-306 -407h323v-73h-451v47zM824 723h90l58 -79l57 79h90l-105 -135
h-84z" />
    <glyph glyph-name="uni01C6" unicode="&#x1c6;" horiz-adv-x="1056" 
d="M35 0zM89 55q-54 67 -54 208q0 138 53.5 206.5t146.5 68.5q56 0 95 -17t65 -55h6v257h88v-723h-66l-11 71h-6q-26 -41 -68.5 -62t-94.5 -21q-100 0 -154 67zM368.5 111q32.5 50 32.5 148v4q0 100 -33 151t-103 51q-50 0 -80.5 -19.5t-44.5 -63.5t-14 -119v-4
q0 -74 14 -117t44 -62t81 -19q71 0 103.5 50zM580 47l305 406h-284v73h413v-46l-306 -407h323v-73h-451v47zM658 723h90l58 -79l57 79h90l-105 -135h-84z" />
    <glyph glyph-name="uni01C7" unicode="&#x1c7;" horiz-adv-x="1056" 
d="M79 0zM79 686h95v-603h352v-83h-447v686zM636 38q-51 50 -51 145v25h95v-30q0 -54 26 -81.5t75 -27.5q50 0 76 31.5t26 93.5v492h95v-487q0 -105 -51 -158t-146 -53q-94 0 -145 50z" />
    <glyph glyph-name="uni01C8" unicode="&#x1c8;" horiz-adv-x="778" 
d="M79 0zM79 686h95v-603h352v-83h-447v686zM623 723h88v-98h-88v98zM532 -170v57h44q47 0 47 48v591h88v-587q0 -52 -25.5 -86.5t-84.5 -34.5q-35 0 -69 12z" />
    <glyph glyph-name="uni01C9" unicode="&#x1c9;" horiz-adv-x="444" 
d="M67 0zM67 723h88v-723h-88v723zM289 723h88v-98h-88v98zM198 -170v57h44q47 0 47 48v591h88v-587q0 -52 -25.5 -86.5t-84.5 -34.5q-35 0 -69 12z" />
    <glyph glyph-name="uni01CA" unicode="&#x1ca;" horiz-adv-x="1222" 
d="M79 0zM79 686h85l362 -478l24 -32l4 1v47v462h89v-686h-81l-364 484l-26 35l-4 -1v-47v-471h-89v686zM802 38q-51 50 -51 145v25h95v-30q0 -54 26 -81.5t75 -27.5q50 0 76 31.5t26 93.5v492h95v-487q0 -105 -51 -158t-146 -53q-94 0 -145 50z" />
    <glyph glyph-name="uni01CB" unicode="&#x1cb;" horiz-adv-x="944" 
d="M79 0zM79 686h85l362 -478l24 -32l4 1v47v462h89v-686h-81l-364 484l-26 35l-4 -1v-47v-471h-89v686zM789 723h88v-98h-88v98zM698 -170v57h44q47 0 47 48v591h88v-587q0 -52 -25.5 -86.5t-84.5 -34.5q-35 0 -69 12z" />
    <glyph glyph-name="uni01CC" unicode="&#x1cc;" horiz-adv-x="778" 
d="M67 0zM67 526h67l10 -71h7q58 83 177 83q79 0 121.5 -42.5t42.5 -136.5v-359h-88v353q0 63 -28 87.5t-81 24.5q-38 0 -70 -18.5t-51 -53.5t-19 -82v-311h-88v526zM623 723h88v-98h-88v98zM532 -170v57h44q47 0 47 48v591h88v-587q0 -52 -25.5 -86.5t-84.5 -34.5
q-35 0 -69 12z" />
    <glyph glyph-name="uni01CD" unicode="&#x1cd;" horiz-adv-x="667" 
d="M7 0zM273 686h121l266 -686h-101l-69 183h-318l-67 -183h-98zM459 266l-80 214l-46 124h-5l-45 -122l-80 -216h256zM186 868h90l58 -79l57 79h90l-105 -135h-84z" />
    <glyph glyph-name="uni01CE" unicode="&#x1ce;" 
d="M36 0zM89 20q-53 32 -53 116q0 101 90 138.5t260 37.5v58q0 46 -26 70.5t-94 24.5q-64 0 -91.5 -24t-27.5 -59v-12h-85q-1 6 -1 22q0 70 58 108t155 38q98 0 149 -41t51 -116v-285q0 -18 10 -26.5t25 -8.5h40v-57q-26 -12 -68 -12q-34 0 -57 20.5t-31 54.5h-7
q-27 -37 -73.5 -58t-102.5 -21q-68 0 -121 32zM307 77q35 16 57 47.5t22 76.5v38q-129 0 -193.5 -20.5t-64.5 -77.5q0 -43 26.5 -61.5t78.5 -18.5q39 0 74 16zM130 723h90l58 -79l57 79h90l-105 -135h-84z" />
    <glyph glyph-name="uni01CF" unicode="&#x1cf;" horiz-adv-x="278" 
d="M0 0zM92 686h95v-686h-95v686zM-9 868h90l58 -79l57 79h90l-105 -135h-84z" />
    <glyph glyph-name="uni01D0" unicode="&#x1d0;" horiz-adv-x="278" 
d="M0 0zM95 526h88v-526h-88v526zM-9 723h90l58 -79l57 79h90l-105 -135h-84z" />
    <glyph glyph-name="uni01D1" unicode="&#x1d1;" horiz-adv-x="778" 
d="M47 0zM136.5 77.5q-89.5 89.5 -89.5 265.5t89.5 265.5t252.5 89.5q164 0 253.5 -89.5t89.5 -265.5q0 -175 -89.5 -265t-253.5 -90q-163 0 -252.5 89.5zM571 133.5q63 64.5 63 205.5v4q-1 143 -64 208.5t-181 65.5q-117 0 -180 -65.5t-64 -208.5v-4q0 -141 63 -205.5
t181 -64.5q119 0 182 64.5zM241 868h90l58 -79l57 79h90l-105 -135h-84z" />
    <glyph glyph-name="uni01D2" unicode="&#x1d2;" 
d="M35 0zM96 55.5q-61 67.5 -61 207.5t61 207.5t182 67.5t182 -67.5t61 -207.5t-61 -207.5t-182 -67.5t-182 67.5zM394 107.5q36 46.5 36 151.5v8q0 105 -36 151.5t-116 46.5t-116 -46.5t-36 -151.5v-8q0 -105 36 -151.5t116 -46.5t116 46.5zM130 723h90l58 -79l57 79h90
l-105 -135h-84z" />
    <glyph glyph-name="uni01D3" unicode="&#x1d3;" horiz-adv-x="722" 
d="M79 0zM152 53q-73 65 -73 200v433h95v-438q0 -88 48.5 -133.5t137.5 -45.5q90 0 139 46t49 133v438h95v-433q0 -135 -73 -200t-210 -65q-135 0 -208 65zM213 868h90l58 -79l57 79h90l-105 -135h-84z" />
    <glyph glyph-name="uni01D4" unicode="&#x1d4;" 
d="M64 0zM106.5 30.5q-42.5 42.5 -42.5 136.5v359h88v-353q0 -63 28 -87.5t81 -24.5q38 0 70 18.5t51 53.5t19 82v311h88v-526h-67l-10 71h-7q-58 -83 -177 -83q-79 0 -121.5 42.5zM129 723h90l58 -79l57 79h90l-105 -135h-84z" />
    <glyph glyph-name="uni01D5" unicode="&#x1d5;" horiz-adv-x="722" 
d="M79 0zM152 53q-73 65 -73 200v433h95v-438q0 -88 48.5 -133.5t137.5 -45.5q90 0 139 46t49 133v438h95v-433q0 -135 -73 -200t-210 -65q-135 0 -208 65zM224 868h87v-95h-87v95zM411 868h87v-95h-87v95zM208 1011h305v-72h-305v72z" />
    <glyph glyph-name="uni01D6" unicode="&#x1d6;" 
d="M64 0zM106.5 30.5q-42.5 42.5 -42.5 136.5v359h88v-353q0 -63 28 -87.5t81 -24.5q38 0 70 18.5t51 53.5t19 82v311h88v-526h-67l-10 71h-7q-58 -83 -177 -83q-79 0 -121.5 42.5zM140 723h87v-95h-87v95zM327 723h87v-95h-87v95zM124 866h305v-72h-305v72z" />
    <glyph glyph-name="uni01D7" unicode="&#x1d7;" horiz-adv-x="722" 
d="M79 0zM152 53q-73 65 -73 200v433h95v-438q0 -88 48.5 -133.5t137.5 -45.5q90 0 139 46t49 133v438h95v-433q0 -135 -73 -200t-210 -65q-135 0 -208 65zM224 868h87v-95h-87v95zM411 868h87v-95h-87v95zM409 1035h96l1 -3l-108 -129h-75z" />
    <glyph glyph-name="uni01D8" unicode="&#x1d8;" 
d="M64 0zM106.5 30.5q-42.5 42.5 -42.5 136.5v359h88v-353q0 -63 28 -87.5t81 -24.5q38 0 70 18.5t51 53.5t19 82v311h88v-526h-67l-10 71h-7q-58 -83 -177 -83q-79 0 -121.5 42.5zM140 723h87v-95h-87v95zM327 723h87v-95h-87v95zM325 890h96l1 -3l-108 -129h-75z" />
    <glyph glyph-name="uni01D9" unicode="&#x1d9;" horiz-adv-x="722" 
d="M79 0zM152 53q-73 65 -73 200v433h95v-438q0 -88 48.5 -133.5t137.5 -45.5q90 0 139 46t49 133v438h95v-433q0 -135 -73 -200t-210 -65q-135 0 -208 65zM224 868h87v-95h-87v95zM411 868h87v-95h-87v95zM213 1035h90l58 -79l57 79h90l-105 -135h-84z" />
    <glyph glyph-name="uni01DA" unicode="&#x1da;" 
d="M64 0zM106.5 30.5q-42.5 42.5 -42.5 136.5v359h88v-353q0 -63 28 -87.5t81 -24.5q38 0 70 18.5t51 53.5t19 82v311h88v-526h-67l-10 71h-7q-58 -83 -177 -83q-79 0 -121.5 42.5zM140 723h87v-95h-87v95zM327 723h87v-95h-87v95zM129 890h90l58 -79l57 79h90l-105 -135
h-84z" />
    <glyph glyph-name="uni01DB" unicode="&#x1db;" horiz-adv-x="722" 
d="M79 0zM152 53q-73 65 -73 200v433h95v-438q0 -88 48.5 -133.5t137.5 -45.5q90 0 139 46t49 133v438h95v-433q0 -135 -73 -200t-210 -65q-135 0 -208 65zM224 868h87v-95h-87v95zM411 868h87v-95h-87v95zM215 1032l1 3h96l86 -132h-75z" />
    <glyph glyph-name="uni01DC" unicode="&#x1dc;" 
d="M64 0zM106.5 30.5q-42.5 42.5 -42.5 136.5v359h88v-353q0 -63 28 -87.5t81 -24.5q38 0 70 18.5t51 53.5t19 82v311h88v-526h-67l-10 71h-7q-58 -83 -177 -83q-79 0 -121.5 42.5zM140 723h87v-95h-87v95zM327 723h87v-95h-87v95zM131 887l1 3h96l86 -132h-75z" />
    <glyph glyph-name="Gcaron" unicode="&#x1e6;" horiz-adv-x="778" 
d="M47 0zM370 357h337v-357h-74l-7 76q-78 -88 -239 -88q-168 0 -254 88.5t-86 266.5q0 355 346 355q142 0 228 -63t86 -183h-97q0 83 -58 124t-159 41q-125 0 -186 -64t-61 -210v-2q1 -145 60.5 -208.5t180.5 -63.5q116 0 170.5 48t54.5 147v10h-242v83zM241 868h90l58 -79
l57 79h90l-105 -135h-84z" />
    <glyph glyph-name="gcaron" unicode="&#x1e7;" 
d="M18 0zM60.5 -152.5q-42.5 29.5 -42.5 97.5q0 82 85 112q-24 13 -39.5 33.5t-15.5 47.5q0 39 27.5 59t60.5 28q-33 24 -52 59t-19 77q0 84 57 130.5t156 46.5q55 0 100 -18q65 31 76 91h84q0 -47 -27.5 -81t-74.5 -45q56 -50 56 -124q0 -84 -57.5 -130.5t-156.5 -46.5h-84
q-27 0 -41.5 -12t-14.5 -31t14.5 -31t41.5 -12h211q62 0 98 -37.5t36 -90.5q0 -38 -17 -73t-54.5 -57t-94.5 -22h-212q-58 0 -100.5 29.5zM373 280.5q32 28.5 32 80.5t-32 80.5t-94 28.5t-94 -28.5t-32 -80.5t32 -80.5t94 -28.5t94 28.5zM375 -111q33 0 55 18t22 48
t-17.5 47.5t-46.5 17.5h-219q-29 0 -46 -17.5t-17 -47.5t17 -48t46 -18h206zM130 723h90l58 -79l57 79h90l-105 -135h-84z" />
    <glyph glyph-name="uni01EA" unicode="&#x1ea;" horiz-adv-x="778" 
d="M502.5 -24.5q-11.5 -18.5 -11.5 -37.5q0 -23 13 -39t40 -16h32v-51q-33 -14 -61 -14q-42 0 -72 21.5t-30 68.5q0 46 35 83q-28 -3 -59 -3q-163 0 -252.5 89.5t-89.5 265.5t89.5 265.5t252.5 89.5q164 0 253.5 -89.5t89.5 -265.5q0 -133 -52.5 -217t-150.5 -117v-1
q-15 -14 -26.5 -32.5zM208 133.5q63 -64.5 181 -64.5q119 0 182 64.5t63 205.5v4q-1 143 -64 208.5t-181 65.5q-117 0 -180 -65.5t-64 -208.5v-4q0 -141 63 -205.5z" />
    <glyph glyph-name="uni01EB" unicode="&#x1eb;" 
d="M365.5 -24.5q-11.5 -18.5 -11.5 -37.5q0 -23 13 -39t40 -16h32v-51q-33 -14 -61 -14q-42 0 -72 21.5t-30 68.5q0 45 33 81q-10 -1 -31 -1q-121 0 -182 67.5t-61 207.5t61 207.5t182 67.5t182 -67.5t61 -207.5q0 -202 -129 -255q-15 -14 -26.5 -32.5zM162 107.5
q36 -46.5 116 -46.5t116 46.5t36 151.5v8q0 105 -36 151.5t-116 46.5t-116 -46.5t-36 -151.5v-8q0 -105 36 -151.5z" />
    <glyph glyph-name="uni01F1" unicode="&#x1f1;" horiz-adv-x="1333" 
d="M79 0zM79 686h254q165 0 254 -84.5t89 -258.5t-89 -258.5t-254 -84.5h-254v686zM333 83q119 0 181.5 60t63.5 198v2q0 139 -62.5 199.5t-182.5 60.5h-159v-520h159zM745 49l412 554h-386v83h531v-49l-413 -554h422v-83h-566v49z" />
    <glyph glyph-name="uni01F2" unicode="&#x1f2;" horiz-adv-x="1222" 
d="M79 0zM79 686h254q165 0 254 -84.5t89 -258.5t-89 -258.5t-254 -84.5h-254v686zM333 83q119 0 181.5 60t63.5 198v2q0 139 -62.5 199.5t-182.5 60.5h-159v-520h159zM746 47l305 406h-284v73h413v-46l-306 -407h323v-73h-451v47z" />
    <glyph glyph-name="uni01F3" unicode="&#x1f3;" horiz-adv-x="1056" 
d="M35 0zM89 55q-54 67 -54 208q0 138 53.5 206.5t146.5 68.5q56 0 95 -17t65 -55h6v257h88v-723h-66l-11 71h-6q-26 -41 -68.5 -62t-94.5 -21q-100 0 -154 67zM368.5 111q32.5 50 32.5 148v4q0 100 -33 151t-103 51q-50 0 -80.5 -19.5t-44.5 -63.5t-14 -119v-4
q0 -74 14 -117t44 -62t81 -19q71 0 103.5 50zM580 47l305 406h-284v73h413v-46l-306 -407h323v-73h-451v47z" />
    <glyph glyph-name="uni01F4" unicode="&#x1f4;" horiz-adv-x="778" 
d="M47 0zM370 357h337v-357h-74l-7 76q-78 -88 -239 -88q-168 0 -254 88.5t-86 266.5q0 355 346 355q142 0 228 -63t86 -183h-97q0 83 -58 124t-159 41q-125 0 -186 -64t-61 -210v-2q1 -145 60.5 -208.5t180.5 -63.5q116 0 170.5 48t54.5 147v10h-242v83zM437 868h96l1 -3
l-108 -129h-75z" />
    <glyph glyph-name="uni01F5" unicode="&#x1f5;" 
d="M18 0zM60.5 -152.5q-42.5 29.5 -42.5 97.5q0 82 85 112q-24 13 -39.5 33.5t-15.5 47.5q0 39 27.5 59t60.5 28q-33 24 -52 59t-19 77q0 84 57 130.5t156 46.5q55 0 100 -18q65 31 76 91h84q0 -47 -27.5 -81t-74.5 -45q56 -50 56 -124q0 -84 -57.5 -130.5t-156.5 -46.5h-84
q-27 0 -41.5 -12t-14.5 -31t14.5 -31t41.5 -12h211q62 0 98 -37.5t36 -90.5q0 -38 -17 -73t-54.5 -57t-94.5 -22h-212q-58 0 -100.5 29.5zM373 280.5q32 28.5 32 80.5t-32 80.5t-94 28.5t-94 -28.5t-32 -80.5t32 -80.5t94 -28.5t94 28.5zM375 -111q33 0 55 18t22 48
t-17.5 47.5t-46.5 17.5h-219q-29 0 -46 -17.5t-17 -47.5t17 -48t46 -18h206zM326 723h96l1 -3l-108 -129h-75z" />
    <glyph glyph-name="Aringacute" unicode="&#x1fa;" horiz-adv-x="667" 
d="M382 993h96l1 -3l-108 -129h-75zM267 671q-14 13 -22 31.5t-8 40.5q0 41 26 68.5t70 27.5t70 -27.5t26 -68.5q0 -46 -29 -72l260 -671h-101l-69 183h-318l-67 -183h-98zM369.5 707q14.5 15 14.5 36t-14.5 36t-36.5 15t-36.5 -15t-14.5 -36t14.5 -36t36.5 -15t36.5 15z
M459 266l-80 214l-46 124h-5l-45 -122l-80 -216h256z" />
    <glyph glyph-name="aringacute" unicode="&#x1fb;" 
d="M36 0zM89 20q-53 32 -53 116q0 101 90 138.5t260 37.5v58q0 46 -26 70.5t-94 24.5q-64 0 -91.5 -24t-27.5 -59v-12h-85q-1 6 -1 22q0 70 58 108t155 38q98 0 149 -41t51 -116v-285q0 -18 10 -26.5t25 -8.5h40v-57q-26 -12 -68 -12q-34 0 -57 20.5t-31 54.5h-7
q-27 -37 -73.5 -58t-102.5 -21q-68 0 -121 32zM307 77q35 16 57 47.5t22 76.5v38q-129 0 -193.5 -20.5t-64.5 -77.5q0 -43 26.5 -61.5t78.5 -18.5q39 0 74 16zM208 593.5q-26 27.5 -26 68.5t26 68.5t70 27.5t70 -27.5t26 -68.5t-26 -68.5t-70 -27.5t-70 27.5zM314.5 626
q14.5 15 14.5 36t-14.5 36t-36.5 15t-36.5 -15t-14.5 -36t14.5 -36t36.5 -15t36.5 15zM327 914h96l1 -3l-108 -129h-75z" />
    <glyph glyph-name="AEacute" unicode="&#x1fc;" horiz-adv-x="1000" 
d="M0 0zM345 686h595v-83h-445l59 -211h342v-83h-318l63 -226h305v-83h-380l-51 183h-331l-90 -183h-95zM492 266l-94 337h-5l-168 -337h267zM548 868h96l1 -3l-108 -129h-75z" />
    <glyph glyph-name="aeacute" unicode="&#x1fd;" horiz-adv-x="889" 
d="M36 0zM92 20q-56 32 -56 116q0 101 91 138.5t261 37.5v58q0 46 -27 70.5t-95 24.5q-64 0 -91.5 -24t-27.5 -59v-12h-85q-1 6 -1 22q0 70 58 108t155 38q124 0 174 -74q60 74 181 74q110 0 165.5 -60.5t55.5 -194.5v-44h-373q5 -91 41.5 -134.5t110.5 -43.5q60 0 97.5 29
t37.5 89h86q0 -92 -62 -141.5t-159 -49.5q-141 0 -197 89q-36 -42 -92 -65.5t-120 -23.5q-72 0 -128 32zM758 312q0 153 -129 153q-71 0 -107 -36t-43 -117h279zM342.5 95q45.5 34 45.5 106v38q-129 0 -194.5 -20.5t-65.5 -77.5q0 -43 26.5 -61.5t78.5 -18.5q64 0 109.5 34z
M493 723h96l1 -3l-108 -129h-75z" />
    <glyph glyph-name="Oslashacute" unicode="&#x1fe;" horiz-adv-x="778" 
d="M47 0zM141 73q-94 91 -94 270q0 176 89.5 265.5t252.5 89.5q117 0 196 -46l63 83h84l-94 -123q94 -91 94 -269q0 -175 -89.5 -265t-253.5 -90q-117 0 -195 44l-62 -81h-85zM532 583q-58 34 -143 34q-118 0 -181 -64.5t-63 -205.5v-4q0 -129 52 -196zM571 133.5
q63 64.5 63 205.5v4q0 126 -52 195l-334 -436q55 -33 141 -33q119 0 182 64.5zM437 868h96l1 -3l-108 -129h-75z" />
    <glyph glyph-name="oslashacute" unicode="&#x1ff;" horiz-adv-x="611" 
d="M45 0zM121 57q-59 68 -59 206q0 140 61 207.5t182 67.5q82 0 138 -32l49 69h74l-77 -108q59 -68 59 -204q0 -140 -61 -207.5t-182 -67.5q-82 0 -137 31l-48 -68h-75zM396 441q-34 24 -91 24q-80 0 -116 -46.5t-36 -150.5v-5q0 -86 22 -131zM421 107.5q36 46.5 36 150.5v5
q0 84 -22 129l-220 -308q33 -23 90 -23q80 0 116 46.5zM354 723h96l1 -3l-108 -129h-75z" />
    <glyph glyph-name="uni0200" unicode="&#x200;" horiz-adv-x="667" 
d="M7 0zM273 686h121l266 -686h-101l-69 183h-318l-67 -183h-98zM459 266l-80 214l-46 124h-5l-45 -122l-80 -216h256zM157 865l1 3h97l62 -132h-76zM296 865l1 3h97l62 -132h-76z" />
    <glyph glyph-name="uni0201" unicode="&#x201;" 
d="M36 0zM89 20q-53 32 -53 116q0 101 90 138.5t260 37.5v58q0 46 -26 70.5t-94 24.5q-64 0 -91.5 -24t-27.5 -59v-12h-85q-1 6 -1 22q0 70 58 108t155 38q98 0 149 -41t51 -116v-285q0 -18 10 -26.5t25 -8.5h40v-57q-26 -12 -68 -12q-34 0 -57 20.5t-31 54.5h-7
q-27 -37 -73.5 -58t-102.5 -21q-68 0 -121 32zM307 77q35 16 57 47.5t22 76.5v38q-129 0 -193.5 -20.5t-64.5 -77.5q0 -43 26.5 -61.5t78.5 -18.5q39 0 74 16zM101 720l1 3h97l62 -132h-76zM240 720l1 3h97l62 -132h-76z" />
    <glyph glyph-name="uni0202" unicode="&#x202;" horiz-adv-x="667" 
d="M7 0zM273 686h121l266 -686h-101l-69 183h-318l-67 -183h-98zM459 266l-80 214l-46 124h-5l-45 -122l-80 -216h256zM222 833.5q34 34.5 111 34.5t111.5 -34.5t34.5 -82.5h-61q-3 21 -22.5 37t-62.5 16q-72 0 -84 -53h-61q0 48 34 82.5z" />
    <glyph glyph-name="uni0203" unicode="&#x203;" 
d="M36 0zM89 20q-53 32 -53 116q0 101 90 138.5t260 37.5v58q0 46 -26 70.5t-94 24.5q-64 0 -91.5 -24t-27.5 -59v-12h-85q-1 6 -1 22q0 70 58 108t155 38q98 0 149 -41t51 -116v-285q0 -18 10 -26.5t25 -8.5h40v-57q-26 -12 -68 -12q-34 0 -57 20.5t-31 54.5h-7
q-27 -37 -73.5 -58t-102.5 -21q-68 0 -121 32zM307 77q35 16 57 47.5t22 76.5v38q-129 0 -193.5 -20.5t-64.5 -77.5q0 -43 26.5 -61.5t78.5 -18.5q39 0 74 16zM166 688.5q34 34.5 111 34.5t111.5 -34.5t34.5 -82.5h-61q-3 21 -22.5 37t-62.5 16q-72 0 -84 -53h-61
q0 48 34 82.5z" />
    <glyph glyph-name="uni0204" unicode="&#x204;" horiz-adv-x="667" 
d="M79 0zM79 686h528v-83h-433v-211h389v-83h-389v-226h439v-83h-534v686zM157 865l1 3h97l62 -132h-76zM296 865l1 3h97l62 -132h-76z" />
    <glyph glyph-name="uni0205" unicode="&#x205;" 
d="M39 0zM101 55q-62 67 -62 208t62 208t189 67q114 0 170.5 -60.5t56.5 -194.5v-44h-387q5 -91 43.5 -134.5t116.5 -43.5q63 0 102 29t39 89h86q0 -92 -63.5 -141.5t-163.5 -49.5q-127 0 -189 67zM425 312q0 153 -135 153q-75 0 -112.5 -36t-45.5 -117h293zM101 720l1 3h97
l62 -132h-76zM240 720l1 3h97l62 -132h-76z" />
    <glyph glyph-name="uni0206" unicode="&#x206;" horiz-adv-x="667" 
d="M79 0zM79 686h528v-83h-433v-211h389v-83h-389v-226h439v-83h-534v686zM222 833.5q34 34.5 111 34.5t111.5 -34.5t34.5 -82.5h-61q-3 21 -22.5 37t-62.5 16q-72 0 -84 -53h-61q0 48 34 82.5z" />
    <glyph glyph-name="uni0207" unicode="&#x207;" 
d="M39 0zM101 55q-62 67 -62 208t62 208t189 67q114 0 170.5 -60.5t56.5 -194.5v-44h-387q5 -91 43.5 -134.5t116.5 -43.5q63 0 102 29t39 89h86q0 -92 -63.5 -141.5t-163.5 -49.5q-127 0 -189 67zM425 312q0 153 -135 153q-75 0 -112.5 -36t-45.5 -117h293zM166 688.5
q34 34.5 111 34.5t111.5 -34.5t34.5 -82.5h-61q-3 21 -22.5 37t-62.5 16q-72 0 -84 -53h-61q0 48 34 82.5z" />
    <glyph glyph-name="uni0208" unicode="&#x208;" horiz-adv-x="278" 
d="M0 0zM92 686h95v-686h-95v686zM-38 865l1 3h97l62 -132h-76zM101 865l1 3h97l62 -132h-76z" />
    <glyph glyph-name="uni0209" unicode="&#x209;" horiz-adv-x="278" 
d="M0 0zM95 526h88v-526h-88v526zM-38 720l1 3h97l62 -132h-76zM101 720l1 3h97l62 -132h-76z" />
    <glyph glyph-name="uni020A" unicode="&#x20a;" horiz-adv-x="278" 
d="M0 0zM92 686h95v-686h-95v686zM27 833.5q34 34.5 111 34.5t111.5 -34.5t34.5 -82.5h-61q-3 21 -22.5 37t-62.5 16q-72 0 -84 -53h-61q0 48 34 82.5z" />
    <glyph glyph-name="uni020B" unicode="&#x20b;" horiz-adv-x="278" 
d="M0 0zM95 526h88v-526h-88v526zM27 688.5q34 34.5 111 34.5t111.5 -34.5t34.5 -82.5h-61q-3 21 -22.5 37t-62.5 16q-72 0 -84 -53h-61q0 48 34 82.5z" />
    <glyph glyph-name="uni020C" unicode="&#x20c;" horiz-adv-x="778" 
d="M47 0zM136.5 77.5q-89.5 89.5 -89.5 265.5t89.5 265.5t252.5 89.5q164 0 253.5 -89.5t89.5 -265.5q0 -175 -89.5 -265t-253.5 -90q-163 0 -252.5 89.5zM571 133.5q63 64.5 63 205.5v4q-1 143 -64 208.5t-181 65.5q-117 0 -180 -65.5t-64 -208.5v-4q0 -141 63 -205.5
t181 -64.5q119 0 182 64.5zM212 865l1 3h97l62 -132h-76zM351 865l1 3h97l62 -132h-76z" />
    <glyph glyph-name="uni020D" unicode="&#x20d;" 
d="M35 0zM96 55.5q-61 67.5 -61 207.5t61 207.5t182 67.5t182 -67.5t61 -207.5t-61 -207.5t-182 -67.5t-182 67.5zM394 107.5q36 46.5 36 151.5v8q0 105 -36 151.5t-116 46.5t-116 -46.5t-36 -151.5v-8q0 -105 36 -151.5t116 -46.5t116 46.5zM101 720l1 3h97l62 -132h-76z
M240 720l1 3h97l62 -132h-76z" />
    <glyph glyph-name="uni020E" unicode="&#x20e;" horiz-adv-x="778" 
d="M47 0zM136.5 77.5q-89.5 89.5 -89.5 265.5t89.5 265.5t252.5 89.5q164 0 253.5 -89.5t89.5 -265.5q0 -175 -89.5 -265t-253.5 -90q-163 0 -252.5 89.5zM571 133.5q63 64.5 63 205.5v4q-1 143 -64 208.5t-181 65.5q-117 0 -180 -65.5t-64 -208.5v-4q0 -141 63 -205.5
t181 -64.5q119 0 182 64.5zM277 833.5q34 34.5 111 34.5t111.5 -34.5t34.5 -82.5h-61q-3 21 -22.5 37t-62.5 16q-72 0 -84 -53h-61q0 48 34 82.5z" />
    <glyph glyph-name="uni020F" unicode="&#x20f;" 
d="M35 0zM96 55.5q-61 67.5 -61 207.5t61 207.5t182 67.5t182 -67.5t61 -207.5t-61 -207.5t-182 -67.5t-182 67.5zM394 107.5q36 46.5 36 151.5v8q0 105 -36 151.5t-116 46.5t-116 -46.5t-36 -151.5v-8q0 -105 36 -151.5t116 -46.5t116 46.5zM166 688.5q34 34.5 111 34.5
t111.5 -34.5t34.5 -82.5h-61q-3 21 -22.5 37t-62.5 16q-72 0 -84 -53h-61q0 48 34 82.5z" />
    <glyph glyph-name="uni0210" unicode="&#x210;" horiz-adv-x="722" 
d="M79 0zM79 686h357q103 0 158 -53t55 -142q0 -70 -33.5 -121t-92.5 -73l158 -297h-106l-149 283h-252v-283h-95v686zM431 366q56 0 89 33t33 91q0 54 -31 83.5t-91 29.5h-257v-237h257zM184 865l1 3h97l62 -132h-76zM323 865l1 3h97l62 -132h-76z" />
    <glyph glyph-name="uni0211" unicode="&#x211;" horiz-adv-x="333" 
d="M0 0zM67 526h67l10 -79h6q15 39 45 65t79 26q17 0 30.5 -3.5t16.5 -4.5v-85h-37q-56 0 -92.5 -32.5t-36.5 -101.5v-311h-88v526zM-10 720l1 3h97l62 -132h-76zM129 720l1 3h97l62 -132h-76z" />
    <glyph glyph-name="uni0212" unicode="&#x212;" horiz-adv-x="722" 
d="M79 0zM79 686h357q103 0 158 -53t55 -142q0 -70 -33.5 -121t-92.5 -73l158 -297h-106l-149 283h-252v-283h-95v686zM431 366q56 0 89 33t33 91q0 54 -31 83.5t-91 29.5h-257v-237h257zM249 833.5q34 34.5 111 34.5t111.5 -34.5t34.5 -82.5h-61q-3 21 -22.5 37t-62.5 16
q-72 0 -84 -53h-61q0 48 34 82.5z" />
    <glyph glyph-name="uni0213" unicode="&#x213;" horiz-adv-x="333" 
d="M21 0zM67 526h67l10 -79h6q15 39 45 65t79 26q17 0 30.5 -3.5t16.5 -4.5v-85h-37q-56 0 -92.5 -32.5t-36.5 -101.5v-311h-88v526zM55 688.5q34 34.5 111 34.5t111.5 -34.5t34.5 -82.5h-61q-3 21 -22.5 37t-62.5 16q-72 0 -84 -53h-61q0 48 34 82.5z" />
    <glyph glyph-name="uni0214" unicode="&#x214;" horiz-adv-x="722" 
d="M79 0zM152 53q-73 65 -73 200v433h95v-438q0 -88 48.5 -133.5t137.5 -45.5q90 0 139 46t49 133v438h95v-433q0 -135 -73 -200t-210 -65q-135 0 -208 65zM184 865l1 3h97l62 -132h-76zM323 865l1 3h97l62 -132h-76z" />
    <glyph glyph-name="uni0215" unicode="&#x215;" 
d="M64 0zM106.5 30.5q-42.5 42.5 -42.5 136.5v359h88v-353q0 -63 28 -87.5t81 -24.5q38 0 70 18.5t51 53.5t19 82v311h88v-526h-67l-10 71h-7q-58 -83 -177 -83q-79 0 -121.5 42.5zM100 720l1 3h97l62 -132h-76zM239 720l1 3h97l62 -132h-76z" />
    <glyph glyph-name="uni0216" unicode="&#x216;" horiz-adv-x="722" 
d="M79 0zM152 53q-73 65 -73 200v433h95v-438q0 -88 48.5 -133.5t137.5 -45.5q90 0 139 46t49 133v438h95v-433q0 -135 -73 -200t-210 -65q-135 0 -208 65zM249 833.5q34 34.5 111 34.5t111.5 -34.5t34.5 -82.5h-61q-3 21 -22.5 37t-62.5 16q-72 0 -84 -53h-61q0 48 34 82.5
z" />
    <glyph glyph-name="uni0217" unicode="&#x217;" 
d="M64 0zM106.5 30.5q-42.5 42.5 -42.5 136.5v359h88v-353q0 -63 28 -87.5t81 -24.5q38 0 70 18.5t51 53.5t19 82v311h88v-526h-67l-10 71h-7q-58 -83 -177 -83q-79 0 -121.5 42.5zM165 688.5q34 34.5 111 34.5t111.5 -34.5t34.5 -82.5h-61q-3 21 -22.5 37t-62.5 16
q-72 0 -84 -53h-61q0 48 34 82.5z" />
    <glyph glyph-name="Scommaaccent" unicode="&#x218;" horiz-adv-x="667" 
d="M49 0zM128 38q-79 50 -79 156l1 20h94q0 -1 -1 -7t-1 -14q0 -61 50.5 -92.5t134.5 -31.5q94 0 144 29.5t50 84.5q0 37 -26 61.5t-65.5 38.5t-106.5 31q-83 21 -134 40.5t-87 58t-36 101.5q0 90 75 137t192 47t190 -47.5t73 -145.5v-12h-93v15q0 51 -46.5 80t-120.5 29
q-79 0 -126.5 -24t-47.5 -72q0 -35 25.5 -57t63 -35.5t104.5 -30.5q83 -21 135.5 -41t89 -58.5t36.5 -100.5q0 -110 -76.5 -160t-207.5 -50q-125 0 -204 50zM327 -149h-37v91h88v-84l-43 -88h-45z" />
    <glyph glyph-name="scommaaccent" unicode="&#x219;" horiz-adv-x="500" 
d="M31 0zM125.5 9.5q-48.5 21.5 -71.5 56.5t-23 76q0 12 0.5 16.5t0.5 5.5h87v-10q0 -47 37 -70.5t96 -23.5q51 0 84.5 20.5t33.5 57.5q0 29 -19 47.5t-47 29t-76 22.5q-58 15 -94.5 30t-62 44.5t-25.5 76.5q0 69 56.5 109.5t152.5 40.5q60 0 104 -19.5t66.5 -52t22.5 -72.5
l-1 -19h-86v9q0 35 -27.5 58t-88.5 23q-60 0 -84 -21.5t-24 -49.5q0 -23 17 -38t42 -24t70 -20q62 -16 101 -31.5t66.5 -47t27.5 -83.5q0 -81 -58.5 -121.5t-155.5 -40.5q-73 0 -121.5 21.5zM243 -149h-37v91h88v-84l-43 -88h-45z" />
    <glyph glyph-name="uni021A" unicode="&#x21a;" horiz-adv-x="611" 
d="M22 0zM258 603h-236v83h567v-83h-236v-603h-95v603zM299 -149h-37v91h88v-84l-43 -88h-45z" />
    <glyph glyph-name="uni021B" unicode="&#x21b;" horiz-adv-x="278" 
d="M18 0zM107 21q-25 32 -25 79v353h-64v73h65l19 146h68v-146h89v-73h-89v-345q0 -47 44 -47h45v-58q-13 -6 -34 -10t-39 -4q-54 0 -79 32zM143 -149h-37v91h88v-84l-43 -88h-45z" />
    <glyph glyph-name="uni0232" unicode="&#x232;" horiz-adv-x="667" 
d="M16 0zM287 284l-271 402h115l204 -314h5l203 314h109l-270 -402v-284h-95v284zM181 844h305v-72h-305v72z" />
    <glyph glyph-name="uni0233" unicode="&#x233;" horiz-adv-x="500" 
d="M13 0zM47 -174v57h35q102 0 134 117l-203 526h93l98 -263q14 -37 32.5 -92.5t24.5 -72.5h5q5 17 18.5 64t30.5 101l84 263h88l-173 -499q-35 -100 -79.5 -154.5t-117.5 -54.5q-44 0 -70 8zM97 699h305v-72h-305v72z" />
    <glyph glyph-name="uni0237" unicode="&#x237;" horiz-adv-x="222" 
d="M-24 -170v57h44q47 0 47 48v591h88v-587q0 -52 -25.5 -86.5t-84.5 -34.5q-35 0 -69 12z" />
    <glyph glyph-name="uni0259" unicode="&#x259;" 
d="M96 48q-57 60 -57 195v44h387q-4 92 -43.5 135t-114.5 43q-64 0 -103.5 -29t-39.5 -89h-86q0 93 64 142t170 49q122 0 183 -68t61 -207q0 -140 -62 -207.5t-187 -67.5q-115 0 -172 60zM378.5 97.5q38.5 36.5 45.5 116.5h-293q0 -81 36 -117t104 -36q69 0 107.5 36.5z" />
    <glyph glyph-name="uni0272" unicode="&#x272;" 
d="M-24 -170v57h44q47 0 47 48v591h67l10 -71h7q58 83 177 83q79 0 121.5 -42.5t42.5 -136.5v-359h-88v353q0 63 -28 87.5t-81 24.5q-38 0 -70 -18.5t-51 -53.5t-19 -82v-372q0 -52 -25.5 -86.5t-84.5 -34.5q-35 0 -69 12z" />
    <glyph glyph-name="uni02BC" unicode="&#x2bc;" horiz-adv-x="201" 
d="M92 595h-34v91h85v-84l-41 -112h-44z" />
    <glyph glyph-name="circumflex" unicode="&#x2c6;" horiz-adv-x="333" 
d="M125 723h84l105 -135h-90l-57 79l-58 -79h-90z" />
    <glyph glyph-name="caron" unicode="&#x2c7;" horiz-adv-x="333" 
d="M19 723h90l58 -79l57 79h90l-105 -135h-84z" />
    <glyph glyph-name="uni02C9" unicode="&#x2c9;" horiz-adv-x="333" 
d="M14 627zM14 699h305v-72h-305v72z" />
    <glyph glyph-name="breve" unicode="&#x2d8;" horiz-adv-x="333" 
d="M55 640.5q-34 34.5 -34 82.5h61q12 -53 84 -53q43 0 62.5 16t22.5 37h61q0 -48 -34.5 -82.5t-111.5 -34.5t-111 34.5z" />
    <glyph glyph-name="dotaccent" unicode="&#x2d9;" horiz-adv-x="333" 
d="M123 723h87v-95h-87v95z" />
    <glyph glyph-name="ring" unicode="&#x2da;" horiz-adv-x="333" 
d="M97 593.5q-26 27.5 -26 68.5t26 68.5t70 27.5t70 -27.5t26 -68.5t-26 -68.5t-70 -27.5t-70 27.5zM203.5 626q14.5 15 14.5 36t-14.5 36t-36.5 15t-36.5 -15t-14.5 -36t14.5 -36t36.5 -15t36.5 15z" />
    <glyph glyph-name="ogonek" unicode="&#x2db;" horiz-adv-x="333" 
d="M111 -160.5q-30 21.5 -30 68.5q0 33 14.5 56.5t41.5 47.5h60v-4q-15 -14 -26.5 -32.5t-11.5 -37.5q0 -23 13 -39t40 -16h32v-51q-33 -14 -61 -14q-42 0 -72 21.5z" />
    <glyph glyph-name="tilde" unicode="&#x2dc;" horiz-adv-x="333" 
d="M24 693.5q21 29.5 64 29.5q19 0 36.5 -4t42.5 -12q43 -15 70 -15q25 0 28 31h65q0 -45 -21 -74.5t-64 -29.5q-19 0 -36.5 4t-42.5 12q-43 15 -70 15q-25 0 -28 -31h-65q0 45 21 74.5z" />
    <glyph glyph-name="hungarumlaut" unicode="&#x2dd;" horiz-adv-x="333" 
d="M89 723h97l1 -3l-84 -129h-76zM228 723h97l1 -3l-84 -129h-76z" />
    <glyph glyph-name="hookabovecomb" unicode="&#x309;" horiz-adv-x="0" 
d="M-199 652h13q29 0 29 18q0 10 -7.5 14t-23.5 4h-60v39q34 8 72 8q37 0 64 -13.5t27 -46.5q0 -25 -16.5 -39.5t-41.5 -16.5v-28h-56v61z" />
    <glyph glyph-name="uni030F" unicode="&#x30f;" horiz-adv-x="0" 
d="M-306 720l1 3h97l62 -132h-76zM-167 720l1 3h97l62 -132h-76z" />
    <glyph glyph-name="uni0311" unicode="&#x311;" horiz-adv-x="0" 
d="M-278 688.5q34 34.5 111 34.5t111.5 -34.5t34.5 -82.5h-61q-3 21 -22.5 37t-62.5 16q-72 0 -84 -53h-61q0 48 34 82.5z" />
    <glyph glyph-name="uni031B" unicode="&#x31b;" horiz-adv-x="0" 
d="M-92 686v-54q0 -85 -51 -136t-151 -63v56q57 7 91 28.5t44 60.5h-53v108h120z" />
    <glyph glyph-name="dotbelowcomb" unicode="&#x323;" horiz-adv-x="0" 
d="M-210 -78h87v-95h-87v95z" />
    <glyph glyph-name="uni0326" unicode="&#x326;" horiz-adv-x="0" 
d="M-118 -149h-37v91h88v-84l-43 -88h-45z" />
    <glyph glyph-name="uni0328" unicode="&#x328;" horiz-adv-x="0" 
d="M-89 0zM-222 -160.5q-30 21.5 -30 68.5q0 33 14.5 56.5t41.5 47.5h60v-4q-15 -14 -26.5 -32.5t-11.5 -37.5q0 -23 13 -39t40 -16h32v-51q-33 -14 -61 -14q-42 0 -72 21.5z" />
    <glyph glyph-name="uni0394" unicode="&#x394;" horiz-adv-x="667" 
d="M273 686h121l266 -686h-653zM525 83l-33 90l-116 310l-43 116h-5l-43 -116l-115 -312l-32 -88h387z" />
    <glyph glyph-name="uni03A9" unicode="&#x3a9;" horiz-adv-x="748" 
d="M711 84v-84h-308v71q67 14 109.5 41t66.5 81.5t24 146.5q-1 147 -60 212t-169 65q-111 0 -170 -63.5t-59 -205.5v-5q0 -93 23.5 -148.5t66 -82.5t109.5 -41v-71h-307v84h40q9 0 41 -2q30 -2 50 -2q-121 93 -121 263q0 175 86 265t241 90t241 -90t86 -265
q0 -170 -123 -263q12 0 34 2q36 2 59 2h40z" />
    <glyph glyph-name="uni03BC" unicode="&#x3bc;" horiz-adv-x="576" 
d="M77 526h88v-353q0 -63 28 -87.5t81 -24.5q38 0 70 18.5t51 53.5t19 82v311h88v-526h-67l-10 71h-7q-28 -42 -69 -62.5t-91 -20.5q-54 0 -93 24v-63v-122h-88v699z" />
    <glyph glyph-name="pi" unicode="&#x3c0;" horiz-adv-x="690" 
d="M146 214.5q24 137.5 26 238.5q-95 0 -133 -13l-15 56q44 30 180 30h455l-10 -73h-97v-297q0 -108 16 -156h-86q-9 12 -14 50.5t-5 96.5v306h-201q-8 -113 -31 -252.5t-51 -200.5h-88q30 77 54 214.5z" />
    <glyph glyph-name="uni1E0C" unicode="&#x1e0c;" horiz-adv-x="722" 
d="M79 0zM79 686h254q165 0 254 -84.5t89 -258.5t-89 -258.5t-254 -84.5h-254v686zM333 83q119 0 181.5 60t63.5 198v2q0 139 -62.5 199.5t-182.5 60.5h-159v-520h159zM317 -78h87v-95h-87v95z" />
    <glyph glyph-name="uni1E0D" unicode="&#x1e0d;" 
d="M35 0zM89 55q-54 67 -54 208q0 138 53.5 206.5t146.5 68.5q56 0 95 -17t65 -55h6v257h88v-723h-66l-11 71h-6q-26 -41 -68.5 -62t-94.5 -21q-100 0 -154 67zM368.5 111q32.5 50 32.5 148v4q0 100 -33 151t-103 51q-50 0 -80.5 -19.5t-44.5 -63.5t-14 -119v-4
q0 -74 14 -117t44 -62t81 -19q71 0 103.5 50zM234 -78h87v-95h-87v95z" />
    <glyph glyph-name="uni1E24" unicode="&#x1e24;" horiz-adv-x="722" 
d="M79 0zM79 686h95v-294h374v294h95v-686h-95v309h-374v-309h-95v686zM317 -78h87v-95h-87v95z" />
    <glyph glyph-name="uni1E25" unicode="&#x1e25;" 
d="M67 0zM67 723h88v-256h7q55 71 166 71q164 0 164 -179v-359h-88v353q0 63 -28 87.5t-81 24.5q-38 0 -70 -18.5t-51 -53.5t-19 -82v-311h-88v723zM234 -78h87v-95h-87v95z" />
    <glyph glyph-name="uni1E44" unicode="&#x1e44;" horiz-adv-x="722" 
d="M79 0zM79 686h85l362 -478l24 -32l4 1v47v462h89v-686h-81l-364 484l-26 35l-4 -1v-47v-471h-89v686zM317 868h87v-95h-87v95z" />
    <glyph glyph-name="uni1E45" unicode="&#x1e45;" 
d="M67 0zM67 526h67l10 -71h7q58 83 177 83q79 0 121.5 -42.5t42.5 -136.5v-359h-88v353q0 63 -28 87.5t-81 24.5q-38 0 -70 -18.5t-51 -53.5t-19 -82v-311h-88v526zM234 723h87v-95h-87v95z" />
    <glyph glyph-name="uni1E5A" unicode="&#x1e5a;" horiz-adv-x="722" 
d="M79 0zM79 686h357q103 0 158 -53t55 -142q0 -70 -33.5 -121t-92.5 -73l158 -297h-106l-149 283h-252v-283h-95v686zM431 366q56 0 89 33t33 91q0 54 -31 83.5t-91 29.5h-257v-237h257zM317 -78h87v-95h-87v95z" />
    <glyph glyph-name="uni1E5B" unicode="&#x1e5b;" horiz-adv-x="333" 
d="M67 0zM67 526h67l10 -79h6q15 39 45 65t79 26q17 0 30.5 -3.5t16.5 -4.5v-85h-37q-56 0 -92.5 -32.5t-36.5 -101.5v-311h-88v526zM67 -78h87v-95h-87v95z" />
    <glyph glyph-name="uni1E62" unicode="&#x1e62;" horiz-adv-x="667" 
d="M49 0zM128 38q-79 50 -79 156l1 20h94q0 -1 -1 -7t-1 -14q0 -61 50.5 -92.5t134.5 -31.5q94 0 144 29.5t50 84.5q0 37 -26 61.5t-65.5 38.5t-106.5 31q-83 21 -134 40.5t-87 58t-36 101.5q0 90 75 137t192 47t190 -47.5t73 -145.5v-12h-93v15q0 51 -46.5 80t-120.5 29
q-79 0 -126.5 -24t-47.5 -72q0 -35 25.5 -57t63 -35.5t104.5 -30.5q83 -21 135.5 -41t89 -58.5t36.5 -100.5q0 -110 -76.5 -160t-207.5 -50q-125 0 -204 50zM290 -78h87v-95h-87v95z" />
    <glyph glyph-name="uni1E63" unicode="&#x1e63;" horiz-adv-x="500" 
d="M31 0zM125.5 9.5q-48.5 21.5 -71.5 56.5t-23 76q0 12 0.5 16.5t0.5 5.5h87v-10q0 -47 37 -70.5t96 -23.5q51 0 84.5 20.5t33.5 57.5q0 29 -19 47.5t-47 29t-76 22.5q-58 15 -94.5 30t-62 44.5t-25.5 76.5q0 69 56.5 109.5t152.5 40.5q60 0 104 -19.5t66.5 -52t22.5 -72.5
l-1 -19h-86v9q0 35 -27.5 58t-88.5 23q-60 0 -84 -21.5t-24 -49.5q0 -23 17 -38t42 -24t70 -20q62 -16 101 -31.5t66.5 -47t27.5 -83.5q0 -81 -58.5 -121.5t-155.5 -40.5q-73 0 -121.5 21.5zM206 -78h87v-95h-87v95z" />
    <glyph glyph-name="uni1E6C" unicode="&#x1e6c;" horiz-adv-x="611" 
d="M22 0zM258 603h-236v83h567v-83h-236v-603h-95v603zM262 -78h87v-95h-87v95z" />
    <glyph glyph-name="uni1E6D" unicode="&#x1e6d;" horiz-adv-x="278" 
d="M18 0zM107 21q-25 32 -25 79v353h-64v73h65l19 146h68v-146h89v-73h-89v-345q0 -47 44 -47h45v-58q-13 -6 -34 -10t-39 -4q-54 0 -79 32zM106 -78h87v-95h-87v95z" />
    <glyph glyph-name="Wgrave" unicode="&#x1e80;" horiz-adv-x="944" 
d="M11 0zM11 686h100l138 -484q7 -26 15 -59t11 -46h5l20 105l106 484h136l110 -484l21 -105h5q3 13 11.5 46t15.5 59l133 484h95l-198 -686h-131l-108 481q-8 36 -14.5 68.5t-8.5 43.5h-5q-2 -12 -7.5 -45.5t-12.5 -66.5l-108 -481h-131zM326 865l1 3h96l86 -132h-75z" />
    <glyph glyph-name="wgrave" unicode="&#x1e81;" horiz-adv-x="722" 
d="M5 0zM5 526h91l81 -298q8 -31 17.5 -70t13.5 -54h5l26 124l69 298h107l73 -298q7 -31 15.5 -70t11.5 -54h5q3 15 12 53t18 71l80 298h86l-158 -526h-96l-76 314l-24 108h-4q-3 -13 -9.5 -46t-13.5 -62l-75 -314h-97zM215 720l1 3h96l86 -132h-75z" />
    <glyph glyph-name="Wacute" unicode="&#x1e82;" horiz-adv-x="944" 
d="M11 0zM11 686h100l138 -484q7 -26 15 -59t11 -46h5l20 105l106 484h136l110 -484l21 -105h5q3 13 11.5 46t15.5 59l133 484h95l-198 -686h-131l-108 481q-8 36 -14.5 68.5t-8.5 43.5h-5q-2 -12 -7.5 -45.5t-12.5 -66.5l-108 -481h-131zM520 868h96l1 -3l-108 -129h-75z
" />
    <glyph glyph-name="wacute" unicode="&#x1e83;" horiz-adv-x="722" 
d="M5 0zM5 526h91l81 -298q8 -31 17.5 -70t13.5 -54h5l26 124l69 298h107l73 -298q7 -31 15.5 -70t11.5 -54h5q3 15 12 53t18 71l80 298h86l-158 -526h-96l-76 314l-24 108h-4q-3 -13 -9.5 -46t-13.5 -62l-75 -314h-97zM409 723h96l1 -3l-108 -129h-75z" />
    <glyph glyph-name="Wdieresis" unicode="&#x1e84;" horiz-adv-x="944" 
d="M11 0zM11 686h100l138 -484q7 -26 15 -59t11 -46h5l20 105l106 484h136l110 -484l21 -105h5q3 13 11.5 46t15.5 59l133 484h95l-198 -686h-131l-108 481q-8 36 -14.5 68.5t-8.5 43.5h-5q-2 -12 -7.5 -45.5t-12.5 -66.5l-108 -481h-131zM335 868h87v-95h-87v95zM522 868
h87v-95h-87v95z" />
    <glyph glyph-name="wdieresis" unicode="&#x1e85;" horiz-adv-x="722" 
d="M5 0zM5 526h91l81 -298q8 -31 17.5 -70t13.5 -54h5l26 124l69 298h107l73 -298q7 -31 15.5 -70t11.5 -54h5q3 15 12 53t18 71l80 298h86l-158 -526h-96l-76 314l-24 108h-4q-3 -13 -9.5 -46t-13.5 -62l-75 -314h-97zM224 723h87v-95h-87v95zM411 723h87v-95h-87v95z" />
    <glyph glyph-name="uni1E92" unicode="&#x1e92;" horiz-adv-x="611" 
d="M23 0zM23 49l412 554h-386v83h531v-49l-413 -554h422v-83h-566v49zM262 -78h87v-95h-87v95z" />
    <glyph glyph-name="uni1E93" unicode="&#x1e93;" horiz-adv-x="500" 
d="M24 0zM24 47l305 406h-284v73h413v-46l-306 -407h323v-73h-451v47zM206 -78h87v-95h-87v95z" />
    <glyph glyph-name="uni1E9E" unicode="&#x1e9e;" horiz-adv-x="768" 
d="M79 421q0 135 84 206t229 71q85 0 149 -24t99 -68.5t35 -102.5q0 -53 -26 -95t-65 -57v-4q59 -15 92 -56.5t33 -103.5q0 -53 -24.5 -95.5t-70.5 -67t-108 -24.5h-222v83h209q55 0 87 32.5t32 76.5q0 47 -37 76.5t-102 29.5h-189v83h186q48 0 78 31t30 82q0 58 -43.5 90.5
t-133.5 32.5q-109 0 -168 -50.5t-59 -152.5v-414h-95v421z" />
    <glyph glyph-name="uni1EA0" unicode="&#x1ea0;" horiz-adv-x="667" 
d="M7 0zM273 686h121l266 -686h-101l-69 183h-318l-67 -183h-98zM459 266l-80 214l-46 124h-5l-45 -122l-80 -216h256zM290 -78h87v-95h-87v95z" />
    <glyph glyph-name="uni1EA1" unicode="&#x1ea1;" 
d="M36 0zM89 20q-53 32 -53 116q0 101 90 138.5t260 37.5v58q0 46 -26 70.5t-94 24.5q-64 0 -91.5 -24t-27.5 -59v-12h-85q-1 6 -1 22q0 70 58 108t155 38q98 0 149 -41t51 -116v-285q0 -18 10 -26.5t25 -8.5h40v-57q-26 -12 -68 -12q-34 0 -57 20.5t-31 54.5h-7
q-27 -37 -73.5 -58t-102.5 -21q-68 0 -121 32zM307 77q35 16 57 47.5t22 76.5v38q-129 0 -193.5 -20.5t-64.5 -77.5q0 -43 26.5 -61.5t78.5 -18.5q39 0 74 16zM234 -78h87v-95h-87v95z" />
    <glyph glyph-name="uni1EA2" unicode="&#x1ea2;" horiz-adv-x="667" 
d="M7 0zM273 686h121l266 -686h-101l-69 183h-318l-67 -183h-98zM459 266l-80 214l-46 124h-5l-45 -122l-80 -216h256zM306 797h13q29 0 29 18q0 10 -7.5 14t-23.5 4h-60v39q34 8 72 8q37 0 64 -13.5t27 -46.5q0 -25 -16.5 -39.5t-41.5 -16.5v-28h-56v61z" />
    <glyph glyph-name="uni1EA3" unicode="&#x1ea3;" 
d="M36 0zM89 20q-53 32 -53 116q0 101 90 138.5t260 37.5v58q0 46 -26 70.5t-94 24.5q-64 0 -91.5 -24t-27.5 -59v-12h-85q-1 6 -1 22q0 70 58 108t155 38q98 0 149 -41t51 -116v-285q0 -18 10 -26.5t25 -8.5h40v-57q-26 -12 -68 -12q-34 0 -57 20.5t-31 54.5h-7
q-27 -37 -73.5 -58t-102.5 -21q-68 0 -121 32zM307 77q35 16 57 47.5t22 76.5v38q-129 0 -193.5 -20.5t-64.5 -77.5q0 -43 26.5 -61.5t78.5 -18.5q39 0 74 16zM250 652h13q29 0 29 18q0 10 -7.5 14t-23.5 4h-60v39q34 8 72 8q37 0 64 -13.5t27 -46.5q0 -25 -16.5 -39.5
t-41.5 -16.5v-28h-56v61z" />
    <glyph glyph-name="uni1EA4" unicode="&#x1ea4;" horiz-adv-x="667" 
d="M7 0zM273 686h121l266 -686h-101l-69 183h-318l-67 -183h-98zM459 266l-80 214l-46 124h-5l-45 -122l-80 -216h256zM292 868h84l105 -135h-90l-57 79l-58 -79h-90zM514 963h96l1 -3l-108 -129h-75z" />
    <glyph glyph-name="uni1EA5" unicode="&#x1ea5;" 
d="M36 0zM89 20q-53 32 -53 116q0 101 90 138.5t260 37.5v58q0 46 -26 70.5t-94 24.5q-64 0 -91.5 -24t-27.5 -59v-12h-85q-1 6 -1 22q0 70 58 108t155 38q98 0 149 -41t51 -116v-285q0 -18 10 -26.5t25 -8.5h40v-57q-26 -12 -68 -12q-34 0 -57 20.5t-31 54.5h-7
q-27 -37 -73.5 -58t-102.5 -21q-68 0 -121 32zM307 77q35 16 57 47.5t22 76.5v38q-129 0 -193.5 -20.5t-64.5 -77.5q0 -43 26.5 -61.5t78.5 -18.5q39 0 74 16zM236 723h84l105 -135h-90l-57 79l-58 -79h-90zM458 818h96l1 -3l-108 -129h-75z" />
    <glyph glyph-name="uni1EA6" unicode="&#x1ea6;" horiz-adv-x="667" 
d="M7 0zM273 686h121l266 -686h-101l-69 183h-318l-67 -183h-98zM459 266l-80 214l-46 124h-5l-45 -122l-80 -216h256zM292 868h84l105 -135h-90l-57 79l-58 -79h-90zM360 960l1 3h96l86 -132h-75z" />
    <glyph glyph-name="uni1EA7" unicode="&#x1ea7;" 
d="M36 0zM89 20q-53 32 -53 116q0 101 90 138.5t260 37.5v58q0 46 -26 70.5t-94 24.5q-64 0 -91.5 -24t-27.5 -59v-12h-85q-1 6 -1 22q0 70 58 108t155 38q98 0 149 -41t51 -116v-285q0 -18 10 -26.5t25 -8.5h40v-57q-26 -12 -68 -12q-34 0 -57 20.5t-31 54.5h-7
q-27 -37 -73.5 -58t-102.5 -21q-68 0 -121 32zM307 77q35 16 57 47.5t22 76.5v38q-129 0 -193.5 -20.5t-64.5 -77.5q0 -43 26.5 -61.5t78.5 -18.5q39 0 74 16zM236 723h84l105 -135h-90l-57 79l-58 -79h-90zM304 815l1 3h96l86 -132h-75z" />
    <glyph glyph-name="uni1EA8" unicode="&#x1ea8;" horiz-adv-x="667" 
d="M7 0zM273 686h121l266 -686h-101l-69 183h-318l-67 -183h-98zM459 266l-80 214l-46 124h-5l-45 -122l-80 -216h256zM292 868h84l105 -135h-90l-57 79l-58 -79h-90zM438 892h13q29 0 29 18q0 10 -7.5 14t-23.5 4h-60v39q34 8 72 8q37 0 64 -13.5t27 -46.5
q0 -25 -16.5 -39.5t-41.5 -16.5v-28h-56v61z" />
    <glyph glyph-name="uni1EA9" unicode="&#x1ea9;" 
d="M36 0zM89 20q-53 32 -53 116q0 101 90 138.5t260 37.5v58q0 46 -26 70.5t-94 24.5q-64 0 -91.5 -24t-27.5 -59v-12h-85q-1 6 -1 22q0 70 58 108t155 38q98 0 149 -41t51 -116v-285q0 -18 10 -26.5t25 -8.5h40v-57q-26 -12 -68 -12q-34 0 -57 20.5t-31 54.5h-7
q-27 -37 -73.5 -58t-102.5 -21q-68 0 -121 32zM307 77q35 16 57 47.5t22 76.5v38q-129 0 -193.5 -20.5t-64.5 -77.5q0 -43 26.5 -61.5t78.5 -18.5q39 0 74 16zM236 723h84l105 -135h-90l-57 79l-58 -79h-90zM382 747h13q29 0 29 18q0 10 -7.5 14t-23.5 4h-60v39q34 8 72 8
q37 0 64 -13.5t27 -46.5q0 -25 -16.5 -39.5t-41.5 -16.5v-28h-56v61z" />
    <glyph glyph-name="uni1EAA" unicode="&#x1eaa;" horiz-adv-x="667" 
d="M7 0zM273 686h121l266 -686h-101l-69 183h-318l-67 -183h-98zM459 266l-80 214l-46 124h-5l-45 -122l-80 -216h256zM292 868h84l105 -135h-90l-57 79l-58 -79h-90zM193 998.5q21 29.5 64 29.5q19 0 36.5 -4t42.5 -12q43 -15 70 -15q25 0 28 31h65q0 -45 -21 -74.5
t-64 -29.5q-19 0 -36.5 4t-42.5 12q-43 15 -70 15q-25 0 -28 -31h-65q0 45 21 74.5z" />
    <glyph glyph-name="uni1EAB" unicode="&#x1eab;" 
d="M36 0zM89 20q-53 32 -53 116q0 101 90 138.5t260 37.5v58q0 46 -26 70.5t-94 24.5q-64 0 -91.5 -24t-27.5 -59v-12h-85q-1 6 -1 22q0 70 58 108t155 38q98 0 149 -41t51 -116v-285q0 -18 10 -26.5t25 -8.5h40v-57q-26 -12 -68 -12q-34 0 -57 20.5t-31 54.5h-7
q-27 -37 -73.5 -58t-102.5 -21q-68 0 -121 32zM307 77q35 16 57 47.5t22 76.5v38q-129 0 -193.5 -20.5t-64.5 -77.5q0 -43 26.5 -61.5t78.5 -18.5q39 0 74 16zM236 723h84l105 -135h-90l-57 79l-58 -79h-90zM137 853.5q21 29.5 64 29.5q19 0 36.5 -4t42.5 -12q43 -15 70 -15
q25 0 28 31h65q0 -45 -21 -74.5t-64 -29.5q-19 0 -36.5 4t-42.5 12q-43 15 -70 15q-25 0 -28 -31h-65q0 45 21 74.5z" />
    <glyph glyph-name="uni1EAC" unicode="&#x1eac;" horiz-adv-x="667" 
d="M7 0zM273 686h121l266 -686h-101l-69 183h-318l-67 -183h-98zM459 266l-80 214l-46 124h-5l-45 -122l-80 -216h256zM292 868h84l105 -135h-90l-57 79l-58 -79h-90zM290 -78h87v-95h-87v95z" />
    <glyph glyph-name="uni1EAD" unicode="&#x1ead;" 
d="M36 0zM89 20q-53 32 -53 116q0 101 90 138.5t260 37.5v58q0 46 -26 70.5t-94 24.5q-64 0 -91.5 -24t-27.5 -59v-12h-85q-1 6 -1 22q0 70 58 108t155 38q98 0 149 -41t51 -116v-285q0 -18 10 -26.5t25 -8.5h40v-57q-26 -12 -68 -12q-34 0 -57 20.5t-31 54.5h-7
q-27 -37 -73.5 -58t-102.5 -21q-68 0 -121 32zM307 77q35 16 57 47.5t22 76.5v38q-129 0 -193.5 -20.5t-64.5 -77.5q0 -43 26.5 -61.5t78.5 -18.5q39 0 74 16zM236 723h84l105 -135h-90l-57 79l-58 -79h-90zM234 -78h87v-95h-87v95z" />
    <glyph glyph-name="uni1EAE" unicode="&#x1eae;" horiz-adv-x="667" 
d="M7 0zM273 686h121l266 -686h-101l-69 183h-318l-67 -183h-98zM459 266l-80 214l-46 124h-5l-45 -122l-80 -216h256zM222 785.5q-34 34.5 -34 82.5h61q12 -53 84 -53q43 0 62.5 16t22.5 37h61q0 -48 -34.5 -82.5t-111.5 -34.5t-111 34.5zM382 1000h96l1 -3l-108 -129h-75z
" />
    <glyph glyph-name="uni1EAF" unicode="&#x1eaf;" 
d="M36 0zM89 20q-53 32 -53 116q0 101 90 138.5t260 37.5v58q0 46 -26 70.5t-94 24.5q-64 0 -91.5 -24t-27.5 -59v-12h-85q-1 6 -1 22q0 70 58 108t155 38q98 0 149 -41t51 -116v-285q0 -18 10 -26.5t25 -8.5h40v-57q-26 -12 -68 -12q-34 0 -57 20.5t-31 54.5h-7
q-27 -37 -73.5 -58t-102.5 -21q-68 0 -121 32zM307 77q35 16 57 47.5t22 76.5v38q-129 0 -193.5 -20.5t-64.5 -77.5q0 -43 26.5 -61.5t78.5 -18.5q39 0 74 16zM166 640.5q-34 34.5 -34 82.5h61q12 -53 84 -53q43 0 62.5 16t22.5 37h61q0 -48 -34.5 -82.5t-111.5 -34.5
t-111 34.5zM326 855h96l1 -3l-108 -129h-75z" />
    <glyph glyph-name="uni1EB0" unicode="&#x1eb0;" horiz-adv-x="667" 
d="M7 0zM273 686h121l266 -686h-101l-69 183h-318l-67 -183h-98zM459 266l-80 214l-46 124h-5l-45 -122l-80 -216h256zM222 785.5q-34 34.5 -34 82.5h61q12 -53 84 -53q43 0 62.5 16t22.5 37h61q0 -48 -34.5 -82.5t-111.5 -34.5t-111 34.5zM185 997l1 3h96l86 -132h-75z" />
    <glyph glyph-name="uni1EB1" unicode="&#x1eb1;" 
d="M36 0zM89 20q-53 32 -53 116q0 101 90 138.5t260 37.5v58q0 46 -26 70.5t-94 24.5q-64 0 -91.5 -24t-27.5 -59v-12h-85q-1 6 -1 22q0 70 58 108t155 38q98 0 149 -41t51 -116v-285q0 -18 10 -26.5t25 -8.5h40v-57q-26 -12 -68 -12q-34 0 -57 20.5t-31 54.5h-7
q-27 -37 -73.5 -58t-102.5 -21q-68 0 -121 32zM307 77q35 16 57 47.5t22 76.5v38q-129 0 -193.5 -20.5t-64.5 -77.5q0 -43 26.5 -61.5t78.5 -18.5q39 0 74 16zM166 640.5q-34 34.5 -34 82.5h61q12 -53 84 -53q43 0 62.5 16t22.5 37h61q0 -48 -34.5 -82.5t-111.5 -34.5
t-111 34.5zM134 852l1 3h96l86 -132h-75z" />
    <glyph glyph-name="uni1EB2" unicode="&#x1eb2;" horiz-adv-x="667" 
d="M7 0zM273 686h121l266 -686h-101l-69 183h-318l-67 -183h-98zM459 266l-80 214l-46 124h-5l-45 -122l-80 -216h256zM222 785.5q-34 34.5 -34 82.5h61q12 -53 84 -53q43 0 62.5 16t22.5 37h61q0 -48 -34.5 -82.5t-111.5 -34.5t-111 34.5zM306 929h13q29 0 29 18
q0 10 -7.5 14t-23.5 4h-60v39q34 8 72 8q37 0 64 -13.5t27 -46.5q0 -25 -16.5 -39.5t-41.5 -16.5v-28h-56v61z" />
    <glyph glyph-name="uni1EB3" unicode="&#x1eb3;" 
d="M36 0zM89 20q-53 32 -53 116q0 101 90 138.5t260 37.5v58q0 46 -26 70.5t-94 24.5q-64 0 -91.5 -24t-27.5 -59v-12h-85q-1 6 -1 22q0 70 58 108t155 38q98 0 149 -41t51 -116v-285q0 -18 10 -26.5t25 -8.5h40v-57q-26 -12 -68 -12q-34 0 -57 20.5t-31 54.5h-7
q-27 -37 -73.5 -58t-102.5 -21q-68 0 -121 32zM307 77q35 16 57 47.5t22 76.5v38q-129 0 -193.5 -20.5t-64.5 -77.5q0 -43 26.5 -61.5t78.5 -18.5q39 0 74 16zM166 640.5q-34 34.5 -34 82.5h61q12 -53 84 -53q43 0 62.5 16t22.5 37h61q0 -48 -34.5 -82.5t-111.5 -34.5
t-111 34.5zM250 784h13q29 0 29 18q0 10 -7.5 14t-23.5 4h-60v39q34 8 72 8q37 0 64 -13.5t27 -46.5q0 -25 -16.5 -39.5t-41.5 -16.5v-28h-56v61z" />
    <glyph glyph-name="uni1EB4" unicode="&#x1eb4;" horiz-adv-x="667" 
d="M7 0zM273 686h121l266 -686h-101l-69 183h-318l-67 -183h-98zM459 266l-80 214l-46 124h-5l-45 -122l-80 -216h256zM222 785.5q-34 34.5 -34 82.5h61q12 -53 84 -53q43 0 62.5 16t22.5 37h61q0 -48 -34.5 -82.5t-111.5 -34.5t-111 34.5zM193 998.5q21 29.5 64 29.5
q19 0 36.5 -4t42.5 -12q43 -15 70 -15q25 0 28 31h65q0 -45 -21 -74.5t-64 -29.5q-19 0 -36.5 4t-42.5 12q-43 15 -70 15q-25 0 -28 -31h-65q0 45 21 74.5z" />
    <glyph glyph-name="uni1EB5" unicode="&#x1eb5;" 
d="M36 0zM89 20q-53 32 -53 116q0 101 90 138.5t260 37.5v58q0 46 -26 70.5t-94 24.5q-64 0 -91.5 -24t-27.5 -59v-12h-85q-1 6 -1 22q0 70 58 108t155 38q98 0 149 -41t51 -116v-285q0 -18 10 -26.5t25 -8.5h40v-57q-26 -12 -68 -12q-34 0 -57 20.5t-31 54.5h-7
q-27 -37 -73.5 -58t-102.5 -21q-68 0 -121 32zM307 77q35 16 57 47.5t22 76.5v38q-129 0 -193.5 -20.5t-64.5 -77.5q0 -43 26.5 -61.5t78.5 -18.5q39 0 74 16zM166 640.5q-34 34.5 -34 82.5h61q12 -53 84 -53q43 0 62.5 16t22.5 37h61q0 -48 -34.5 -82.5t-111.5 -34.5
t-111 34.5zM137 853.5q21 29.5 64 29.5q19 0 36.5 -4t42.5 -12q43 -15 70 -15q25 0 28 31h65q0 -45 -21 -74.5t-64 -29.5q-19 0 -36.5 4t-42.5 12q-43 15 -70 15q-25 0 -28 -31h-65q0 45 21 74.5z" />
    <glyph glyph-name="uni1EB6" unicode="&#x1eb6;" horiz-adv-x="667" 
d="M7 0zM273 686h121l266 -686h-101l-69 183h-318l-67 -183h-98zM459 266l-80 214l-46 124h-5l-45 -122l-80 -216h256zM222 785.5q-34 34.5 -34 82.5h61q12 -53 84 -53q43 0 62.5 16t22.5 37h61q0 -48 -34.5 -82.5t-111.5 -34.5t-111 34.5zM290 -78h87v-95h-87v95z" />
    <glyph glyph-name="uni1EB7" unicode="&#x1eb7;" 
d="M36 0zM89 20q-53 32 -53 116q0 101 90 138.5t260 37.5v58q0 46 -26 70.5t-94 24.5q-64 0 -91.5 -24t-27.5 -59v-12h-85q-1 6 -1 22q0 70 58 108t155 38q98 0 149 -41t51 -116v-285q0 -18 10 -26.5t25 -8.5h40v-57q-26 -12 -68 -12q-34 0 -57 20.5t-31 54.5h-7
q-27 -37 -73.5 -58t-102.5 -21q-68 0 -121 32zM307 77q35 16 57 47.5t22 76.5v38q-129 0 -193.5 -20.5t-64.5 -77.5q0 -43 26.5 -61.5t78.5 -18.5q39 0 74 16zM166 640.5q-34 34.5 -34 82.5h61q12 -53 84 -53q43 0 62.5 16t22.5 37h61q0 -48 -34.5 -82.5t-111.5 -34.5
t-111 34.5zM234 -78h87v-95h-87v95z" />
    <glyph glyph-name="uni1EB8" unicode="&#x1eb8;" horiz-adv-x="667" 
d="M79 0zM79 686h528v-83h-433v-211h389v-83h-389v-226h439v-83h-534v686zM290 -78h87v-95h-87v95z" />
    <glyph glyph-name="uni1EB9" unicode="&#x1eb9;" 
d="M39 0zM101 55q-62 67 -62 208t62 208t189 67q114 0 170.5 -60.5t56.5 -194.5v-44h-387q5 -91 43.5 -134.5t116.5 -43.5q63 0 102 29t39 89h86q0 -92 -63.5 -141.5t-163.5 -49.5q-127 0 -189 67zM425 312q0 153 -135 153q-75 0 -112.5 -36t-45.5 -117h293zM234 -78h87v-95
h-87v95z" />
    <glyph glyph-name="uni1EBA" unicode="&#x1eba;" horiz-adv-x="667" 
d="M79 0zM79 686h528v-83h-433v-211h389v-83h-389v-226h439v-83h-534v686zM306 797h13q29 0 29 18q0 10 -7.5 14t-23.5 4h-60v39q34 8 72 8q37 0 64 -13.5t27 -46.5q0 -25 -16.5 -39.5t-41.5 -16.5v-28h-56v61z" />
    <glyph glyph-name="uni1EBB" unicode="&#x1ebb;" 
d="M39 0zM101 55q-62 67 -62 208t62 208t189 67q114 0 170.5 -60.5t56.5 -194.5v-44h-387q5 -91 43.5 -134.5t116.5 -43.5q63 0 102 29t39 89h86q0 -92 -63.5 -141.5t-163.5 -49.5q-127 0 -189 67zM425 312q0 153 -135 153q-75 0 -112.5 -36t-45.5 -117h293zM250 652h13
q29 0 29 18q0 10 -7.5 14t-23.5 4h-60v39q34 8 72 8q37 0 64 -13.5t27 -46.5q0 -25 -16.5 -39.5t-41.5 -16.5v-28h-56v61z" />
    <glyph glyph-name="uni1EBC" unicode="&#x1ebc;" horiz-adv-x="667" 
d="M79 0zM79 686h528v-83h-433v-211h389v-83h-389v-226h439v-83h-534v686zM191 838.5q21 29.5 64 29.5q19 0 36.5 -4t42.5 -12q43 -15 70 -15q25 0 28 31h65q0 -45 -21 -74.5t-64 -29.5q-19 0 -36.5 4t-42.5 12q-43 15 -70 15q-25 0 -28 -31h-65q0 45 21 74.5z" />
    <glyph glyph-name="uni1EBD" unicode="&#x1ebd;" 
d="M39 0zM101 55q-62 67 -62 208t62 208t189 67q114 0 170.5 -60.5t56.5 -194.5v-44h-387q5 -91 43.5 -134.5t116.5 -43.5q63 0 102 29t39 89h86q0 -92 -63.5 -141.5t-163.5 -49.5q-127 0 -189 67zM425 312q0 153 -135 153q-75 0 -112.5 -36t-45.5 -117h293zM135 693.5
q21 29.5 64 29.5q19 0 36.5 -4t42.5 -12q43 -15 70 -15q25 0 28 31h65q0 -45 -21 -74.5t-64 -29.5q-19 0 -36.5 4t-42.5 12q-43 15 -70 15q-25 0 -28 -31h-65q0 45 21 74.5z" />
    <glyph glyph-name="uni1EBE" unicode="&#x1ebe;" horiz-adv-x="667" 
d="M79 0zM79 686h528v-83h-433v-211h389v-83h-389v-226h439v-83h-534v686zM292 868h84l105 -135h-90l-57 79l-58 -79h-90zM514 963h96l1 -3l-108 -129h-75z" />
    <glyph glyph-name="uni1EBF" unicode="&#x1ebf;" 
d="M39 0zM101 55q-62 67 -62 208t62 208t189 67q114 0 170.5 -60.5t56.5 -194.5v-44h-387q5 -91 43.5 -134.5t116.5 -43.5q63 0 102 29t39 89h86q0 -92 -63.5 -141.5t-163.5 -49.5q-127 0 -189 67zM425 312q0 153 -135 153q-75 0 -112.5 -36t-45.5 -117h293zM236 723h84
l105 -135h-90l-57 79l-58 -79h-90zM458 818h96l1 -3l-108 -129h-75z" />
    <glyph glyph-name="uni1EC0" unicode="&#x1ec0;" horiz-adv-x="667" 
d="M79 0zM79 686h528v-83h-433v-211h389v-83h-389v-226h439v-83h-534v686zM292 868h84l105 -135h-90l-57 79l-58 -79h-90zM360 960l1 3h96l86 -132h-75z" />
    <glyph glyph-name="uni1EC1" unicode="&#x1ec1;" 
d="M39 0zM101 55q-62 67 -62 208t62 208t189 67q114 0 170.5 -60.5t56.5 -194.5v-44h-387q5 -91 43.5 -134.5t116.5 -43.5q63 0 102 29t39 89h86q0 -92 -63.5 -141.5t-163.5 -49.5q-127 0 -189 67zM425 312q0 153 -135 153q-75 0 -112.5 -36t-45.5 -117h293zM236 723h84
l105 -135h-90l-57 79l-58 -79h-90zM304 815l1 3h96l86 -132h-75z" />
    <glyph glyph-name="uni1EC2" unicode="&#x1ec2;" horiz-adv-x="667" 
d="M79 0zM79 686h528v-83h-433v-211h389v-83h-389v-226h439v-83h-534v686zM292 868h84l105 -135h-90l-57 79l-58 -79h-90zM438 892h13q29 0 29 18q0 10 -7.5 14t-23.5 4h-60v39q34 8 72 8q37 0 64 -13.5t27 -46.5q0 -25 -16.5 -39.5t-41.5 -16.5v-28h-56v61z" />
    <glyph glyph-name="uni1EC3" unicode="&#x1ec3;" 
d="M39 0zM101 55q-62 67 -62 208t62 208t189 67q114 0 170.5 -60.5t56.5 -194.5v-44h-387q5 -91 43.5 -134.5t116.5 -43.5q63 0 102 29t39 89h86q0 -92 -63.5 -141.5t-163.5 -49.5q-127 0 -189 67zM425 312q0 153 -135 153q-75 0 -112.5 -36t-45.5 -117h293zM236 723h84
l105 -135h-90l-57 79l-58 -79h-90zM382 747h13q29 0 29 18q0 10 -7.5 14t-23.5 4h-60v39q34 8 72 8q37 0 64 -13.5t27 -46.5q0 -25 -16.5 -39.5t-41.5 -16.5v-28h-56v61z" />
    <glyph glyph-name="uni1EC4" unicode="&#x1ec4;" horiz-adv-x="667" 
d="M79 0zM79 686h528v-83h-433v-211h389v-83h-389v-226h439v-83h-534v686zM292 868h84l105 -135h-90l-57 79l-58 -79h-90zM193 998.5q21 29.5 64 29.5q19 0 36.5 -4t42.5 -12q43 -15 70 -15q25 0 28 31h65q0 -45 -21 -74.5t-64 -29.5q-19 0 -36.5 4t-42.5 12q-43 15 -70 15
q-25 0 -28 -31h-65q0 45 21 74.5z" />
    <glyph glyph-name="uni1EC5" unicode="&#x1ec5;" 
d="M39 0zM101 55q-62 67 -62 208t62 208t189 67q114 0 170.5 -60.5t56.5 -194.5v-44h-387q5 -91 43.5 -134.5t116.5 -43.5q63 0 102 29t39 89h86q0 -92 -63.5 -141.5t-163.5 -49.5q-127 0 -189 67zM425 312q0 153 -135 153q-75 0 -112.5 -36t-45.5 -117h293zM236 723h84
l105 -135h-90l-57 79l-58 -79h-90zM137 853.5q21 29.5 64 29.5q19 0 36.5 -4t42.5 -12q43 -15 70 -15q25 0 28 31h65q0 -45 -21 -74.5t-64 -29.5q-19 0 -36.5 4t-42.5 12q-43 15 -70 15q-25 0 -28 -31h-65q0 45 21 74.5z" />
    <glyph glyph-name="uni1EC6" unicode="&#x1ec6;" horiz-adv-x="667" 
d="M79 0zM79 686h528v-83h-433v-211h389v-83h-389v-226h439v-83h-534v686zM292 868h84l105 -135h-90l-57 79l-58 -79h-90zM290 -78h87v-95h-87v95z" />
    <glyph glyph-name="uni1EC7" unicode="&#x1ec7;" 
d="M39 0zM101 55q-62 67 -62 208t62 208t189 67q114 0 170.5 -60.5t56.5 -194.5v-44h-387q5 -91 43.5 -134.5t116.5 -43.5q63 0 102 29t39 89h86q0 -92 -63.5 -141.5t-163.5 -49.5q-127 0 -189 67zM425 312q0 153 -135 153q-75 0 -112.5 -36t-45.5 -117h293zM236 723h84
l105 -135h-90l-57 79l-58 -79h-90zM234 -78h87v-95h-87v95z" />
    <glyph glyph-name="uni1EC8" unicode="&#x1ec8;" horiz-adv-x="278" 
d="M62 0zM92 686h95v-686h-95v686zM111 797h13q29 0 29 18q0 10 -7.5 14t-23.5 4h-60v39q34 8 72 8q37 0 64 -13.5t27 -46.5q0 -25 -16.5 -39.5t-41.5 -16.5v-28h-56v61z" />
    <glyph glyph-name="uni1EC9" unicode="&#x1ec9;" horiz-adv-x="278" 
d="M62 0zM95 526h88v-526h-88v526zM111 652h13q29 0 29 18q0 10 -7.5 14t-23.5 4h-60v39q34 8 72 8q37 0 64 -13.5t27 -46.5q0 -25 -16.5 -39.5t-41.5 -16.5v-28h-56v61z" />
    <glyph glyph-name="uni1ECA" unicode="&#x1eca;" horiz-adv-x="278" 
d="M92 0zM92 686h95v-686h-95v686zM95 -78h87v-95h-87v95z" />
    <glyph glyph-name="uni1ECB" unicode="&#x1ecb;" horiz-adv-x="222" 
d="M67 0zM67 723h88v-98h-88v98zM67 526h88v-526h-88v526zM67 -78h87v-95h-87v95z" />
    <glyph glyph-name="uni1ECC" unicode="&#x1ecc;" horiz-adv-x="778" 
d="M47 0zM136.5 77.5q-89.5 89.5 -89.5 265.5t89.5 265.5t252.5 89.5q164 0 253.5 -89.5t89.5 -265.5q0 -175 -89.5 -265t-253.5 -90q-163 0 -252.5 89.5zM571 133.5q63 64.5 63 205.5v4q-1 143 -64 208.5t-181 65.5q-117 0 -180 -65.5t-64 -208.5v-4q0 -141 63 -205.5
t181 -64.5q119 0 182 64.5zM345 -78h87v-95h-87v95z" />
    <glyph glyph-name="uni1ECD" unicode="&#x1ecd;" 
d="M35 0zM96 55.5q-61 67.5 -61 207.5t61 207.5t182 67.5t182 -67.5t61 -207.5t-61 -207.5t-182 -67.5t-182 67.5zM394 107.5q36 46.5 36 151.5v8q0 105 -36 151.5t-116 46.5t-116 -46.5t-36 -151.5v-8q0 -105 36 -151.5t116 -46.5t116 46.5zM234 -78h87v-95h-87v95z" />
    <glyph glyph-name="uni1ECE" unicode="&#x1ece;" horiz-adv-x="778" 
d="M47 0zM136.5 77.5q-89.5 89.5 -89.5 265.5t89.5 265.5t252.5 89.5q164 0 253.5 -89.5t89.5 -265.5q0 -175 -89.5 -265t-253.5 -90q-163 0 -252.5 89.5zM571 133.5q63 64.5 63 205.5v4q-1 143 -64 208.5t-181 65.5q-117 0 -180 -65.5t-64 -208.5v-4q0 -141 63 -205.5
t181 -64.5q119 0 182 64.5zM361 797h13q29 0 29 18q0 10 -7.5 14t-23.5 4h-60v39q34 8 72 8q37 0 64 -13.5t27 -46.5q0 -25 -16.5 -39.5t-41.5 -16.5v-28h-56v61z" />
    <glyph glyph-name="uni1ECF" unicode="&#x1ecf;" 
d="M35 0zM96 55.5q-61 67.5 -61 207.5t61 207.5t182 67.5t182 -67.5t61 -207.5t-61 -207.5t-182 -67.5t-182 67.5zM394 107.5q36 46.5 36 151.5v8q0 105 -36 151.5t-116 46.5t-116 -46.5t-36 -151.5v-8q0 -105 36 -151.5t116 -46.5t116 46.5zM250 652h13q29 0 29 18
q0 10 -7.5 14t-23.5 4h-60v39q34 8 72 8q37 0 64 -13.5t27 -46.5q0 -25 -16.5 -39.5t-41.5 -16.5v-28h-56v61z" />
    <glyph glyph-name="uni1ED0" unicode="&#x1ed0;" horiz-adv-x="778" 
d="M47 0zM136.5 77.5q-89.5 89.5 -89.5 265.5t89.5 265.5t252.5 89.5q164 0 253.5 -89.5t89.5 -265.5q0 -175 -89.5 -265t-253.5 -90q-163 0 -252.5 89.5zM571 133.5q63 64.5 63 205.5v4q-1 143 -64 208.5t-181 65.5q-117 0 -180 -65.5t-64 -208.5v-4q0 -141 63 -205.5
t181 -64.5q119 0 182 64.5zM347 868h84l105 -135h-90l-57 79l-58 -79h-90zM569 963h96l1 -3l-108 -129h-75z" />
    <glyph glyph-name="uni1ED1" unicode="&#x1ed1;" 
d="M35 0zM96 55.5q-61 67.5 -61 207.5t61 207.5t182 67.5t182 -67.5t61 -207.5t-61 -207.5t-182 -67.5t-182 67.5zM394 107.5q36 46.5 36 151.5v8q0 105 -36 151.5t-116 46.5t-116 -46.5t-36 -151.5v-8q0 -105 36 -151.5t116 -46.5t116 46.5zM236 723h84l105 -135h-90
l-57 79l-58 -79h-90zM458 818h96l1 -3l-108 -129h-75z" />
    <glyph glyph-name="uni1ED2" unicode="&#x1ed2;" horiz-adv-x="778" 
d="M47 0zM136.5 77.5q-89.5 89.5 -89.5 265.5t89.5 265.5t252.5 89.5q164 0 253.5 -89.5t89.5 -265.5q0 -175 -89.5 -265t-253.5 -90q-163 0 -252.5 89.5zM571 133.5q63 64.5 63 205.5v4q-1 143 -64 208.5t-181 65.5q-117 0 -180 -65.5t-64 -208.5v-4q0 -141 63 -205.5
t181 -64.5q119 0 182 64.5zM347 868h84l105 -135h-90l-57 79l-58 -79h-90zM415 960l1 3h96l86 -132h-75z" />
    <glyph glyph-name="uni1ED3" unicode="&#x1ed3;" 
d="M35 0zM96 55.5q-61 67.5 -61 207.5t61 207.5t182 67.5t182 -67.5t61 -207.5t-61 -207.5t-182 -67.5t-182 67.5zM394 107.5q36 46.5 36 151.5v8q0 105 -36 151.5t-116 46.5t-116 -46.5t-36 -151.5v-8q0 -105 36 -151.5t116 -46.5t116 46.5zM236 723h84l105 -135h-90
l-57 79l-58 -79h-90zM304 815l1 3h96l86 -132h-75z" />
    <glyph glyph-name="uni1ED4" unicode="&#x1ed4;" horiz-adv-x="778" 
d="M47 0zM136.5 77.5q-89.5 89.5 -89.5 265.5t89.5 265.5t252.5 89.5q164 0 253.5 -89.5t89.5 -265.5q0 -175 -89.5 -265t-253.5 -90q-163 0 -252.5 89.5zM571 133.5q63 64.5 63 205.5v4q-1 143 -64 208.5t-181 65.5q-117 0 -180 -65.5t-64 -208.5v-4q0 -141 63 -205.5
t181 -64.5q119 0 182 64.5zM347 868h84l105 -135h-90l-57 79l-58 -79h-90zM493 892h13q29 0 29 18q0 10 -7.5 14t-23.5 4h-60v39q34 8 72 8q37 0 64 -13.5t27 -46.5q0 -25 -16.5 -39.5t-41.5 -16.5v-28h-56v61z" />
    <glyph glyph-name="uni1ED5" unicode="&#x1ed5;" 
d="M35 0zM96 55.5q-61 67.5 -61 207.5t61 207.5t182 67.5t182 -67.5t61 -207.5t-61 -207.5t-182 -67.5t-182 67.5zM394 107.5q36 46.5 36 151.5v8q0 105 -36 151.5t-116 46.5t-116 -46.5t-36 -151.5v-8q0 -105 36 -151.5t116 -46.5t116 46.5zM236 723h84l105 -135h-90
l-57 79l-58 -79h-90zM382 747h13q29 0 29 18q0 10 -7.5 14t-23.5 4h-60v39q34 8 72 8q37 0 64 -13.5t27 -46.5q0 -25 -16.5 -39.5t-41.5 -16.5v-28h-56v61z" />
    <glyph glyph-name="uni1ED6" unicode="&#x1ed6;" horiz-adv-x="778" 
d="M47 0zM136.5 77.5q-89.5 89.5 -89.5 265.5t89.5 265.5t252.5 89.5q164 0 253.5 -89.5t89.5 -265.5q0 -175 -89.5 -265t-253.5 -90q-163 0 -252.5 89.5zM571 133.5q63 64.5 63 205.5v4q-1 143 -64 208.5t-181 65.5q-117 0 -180 -65.5t-64 -208.5v-4q0 -141 63 -205.5
t181 -64.5q119 0 182 64.5zM347 868h84l105 -135h-90l-57 79l-58 -79h-90zM248 998.5q21 29.5 64 29.5q19 0 36.5 -4t42.5 -12q43 -15 70 -15q25 0 28 31h65q0 -45 -21 -74.5t-64 -29.5q-19 0 -36.5 4t-42.5 12q-43 15 -70 15q-25 0 -28 -31h-65q0 45 21 74.5z" />
    <glyph glyph-name="uni1ED7" unicode="&#x1ed7;" 
d="M35 0zM96 55.5q-61 67.5 -61 207.5t61 207.5t182 67.5t182 -67.5t61 -207.5t-61 -207.5t-182 -67.5t-182 67.5zM394 107.5q36 46.5 36 151.5v8q0 105 -36 151.5t-116 46.5t-116 -46.5t-36 -151.5v-8q0 -105 36 -151.5t116 -46.5t116 46.5zM236 723h84l105 -135h-90
l-57 79l-58 -79h-90zM137 853.5q21 29.5 64 29.5q19 0 36.5 -4t42.5 -12q43 -15 70 -15q25 0 28 31h65q0 -45 -21 -74.5t-64 -29.5q-19 0 -36.5 4t-42.5 12q-43 15 -70 15q-25 0 -28 -31h-65q0 45 21 74.5z" />
    <glyph glyph-name="uni1ED8" unicode="&#x1ed8;" horiz-adv-x="778" 
d="M47 0zM136.5 77.5q-89.5 89.5 -89.5 265.5t89.5 265.5t252.5 89.5q164 0 253.5 -89.5t89.5 -265.5q0 -175 -89.5 -265t-253.5 -90q-163 0 -252.5 89.5zM571 133.5q63 64.5 63 205.5v4q-1 143 -64 208.5t-181 65.5q-117 0 -180 -65.5t-64 -208.5v-4q0 -141 63 -205.5
t181 -64.5q119 0 182 64.5zM347 868h84l105 -135h-90l-57 79l-58 -79h-90zM345 -78h87v-95h-87v95z" />
    <glyph glyph-name="uni1ED9" unicode="&#x1ed9;" 
d="M35 0zM96 55.5q-61 67.5 -61 207.5t61 207.5t182 67.5t182 -67.5t61 -207.5t-61 -207.5t-182 -67.5t-182 67.5zM394 107.5q36 46.5 36 151.5v8q0 105 -36 151.5t-116 46.5t-116 -46.5t-36 -151.5v-8q0 -105 36 -151.5t116 -46.5t116 46.5zM236 723h84l105 -135h-90
l-57 79l-58 -79h-90zM234 -78h87v-95h-87v95z" />
    <glyph glyph-name="uni1EDA" unicode="&#x1eda;" horiz-adv-x="778" 
d="M47 0zM747 662.5q-31 -45.5 -91 -68.5q76 -92 76 -251q0 -175 -89.5 -265t-253.5 -90q-163 0 -252.5 89.5t-89.5 265.5t89.5 265.5t252.5 89.5q137 0 220 -61q84 18 102 83h-53v108h120v-54q0 -66 -31 -111.5zM634 343q-1 143 -64 208.5t-181 65.5q-117 0 -180 -65.5
t-64 -208.5v-4q0 -141 63 -205.5t181 -64.5q119 0 182 64.5t63 205.5v4zM437 868h96l1 -3l-108 -129h-75z" />
    <glyph glyph-name="uni1EDB" unicode="&#x1edb;" 
d="M35 0zM626 686v-54q0 -72 -37 -120t-109 -68q41 -67 41 -181q0 -140 -61 -207.5t-182 -67.5t-182 67.5t-61 207.5t61 207.5t182 67.5q103 0 160 -47q102 17 121 87h-53v108h120zM430 267q0 105 -36 151.5t-116 46.5t-116 -46.5t-36 -151.5v-8q0 -105 36 -151.5t116 -46.5
t116 46.5t36 151.5v8zM326 723h96l1 -3l-108 -129h-75z" />
    <glyph glyph-name="uni1EDC" unicode="&#x1edc;" horiz-adv-x="778" 
d="M47 0zM747 662.5q-31 -45.5 -91 -68.5q76 -92 76 -251q0 -175 -89.5 -265t-253.5 -90q-163 0 -252.5 89.5t-89.5 265.5t89.5 265.5t252.5 89.5q137 0 220 -61q84 18 102 83h-53v108h120v-54q0 -66 -31 -111.5zM634 343q-1 143 -64 208.5t-181 65.5q-117 0 -180 -65.5
t-64 -208.5v-4q0 -141 63 -205.5t181 -64.5q119 0 182 64.5t63 205.5v4zM243 865l1 3h96l86 -132h-75z" />
    <glyph glyph-name="uni1EDD" unicode="&#x1edd;" 
d="M35 0zM626 686v-54q0 -72 -37 -120t-109 -68q41 -67 41 -181q0 -140 -61 -207.5t-182 -67.5t-182 67.5t-61 207.5t61 207.5t182 67.5q103 0 160 -47q102 17 121 87h-53v108h120zM430 267q0 105 -36 151.5t-116 46.5t-116 -46.5t-36 -151.5v-8q0 -105 36 -151.5t116 -46.5
t116 46.5t36 151.5v8zM132 720l1 3h96l86 -132h-75z" />
    <glyph glyph-name="uni1EDE" unicode="&#x1ede;" horiz-adv-x="778" 
d="M47 0zM747 662.5q-31 -45.5 -91 -68.5q76 -92 76 -251q0 -175 -89.5 -265t-253.5 -90q-163 0 -252.5 89.5t-89.5 265.5t89.5 265.5t252.5 89.5q137 0 220 -61q84 18 102 83h-53v108h120v-54q0 -66 -31 -111.5zM634 343q-1 143 -64 208.5t-181 65.5q-117 0 -180 -65.5
t-64 -208.5v-4q0 -141 63 -205.5t181 -64.5q119 0 182 64.5t63 205.5v4zM361 797h13q29 0 29 18q0 10 -7.5 14t-23.5 4h-60v39q34 8 72 8q37 0 64 -13.5t27 -46.5q0 -25 -16.5 -39.5t-41.5 -16.5v-28h-56v61z" />
    <glyph glyph-name="uni1EDF" unicode="&#x1edf;" 
d="M35 0zM626 686v-54q0 -72 -37 -120t-109 -68q41 -67 41 -181q0 -140 -61 -207.5t-182 -67.5t-182 67.5t-61 207.5t61 207.5t182 67.5q103 0 160 -47q102 17 121 87h-53v108h120zM430 267q0 105 -36 151.5t-116 46.5t-116 -46.5t-36 -151.5v-8q0 -105 36 -151.5t116 -46.5
t116 46.5t36 151.5v8zM250 652h13q29 0 29 18q0 10 -7.5 14t-23.5 4h-60v39q34 8 72 8q37 0 64 -13.5t27 -46.5q0 -25 -16.5 -39.5t-41.5 -16.5v-28h-56v61z" />
    <glyph glyph-name="uni1EE0" unicode="&#x1ee0;" horiz-adv-x="778" 
d="M47 0zM747 662.5q-31 -45.5 -91 -68.5q76 -92 76 -251q0 -175 -89.5 -265t-253.5 -90q-163 0 -252.5 89.5t-89.5 265.5t89.5 265.5t252.5 89.5q137 0 220 -61q84 18 102 83h-53v108h120v-54q0 -66 -31 -111.5zM634 343q-1 143 -64 208.5t-181 65.5q-117 0 -180 -65.5
t-64 -208.5v-4q0 -141 63 -205.5t181 -64.5q119 0 182 64.5t63 205.5v4zM246 838.5q21 29.5 64 29.5q19 0 36.5 -4t42.5 -12q43 -15 70 -15q25 0 28 31h65q0 -45 -21 -74.5t-64 -29.5q-19 0 -36.5 4t-42.5 12q-43 15 -70 15q-25 0 -28 -31h-65q0 45 21 74.5z" />
    <glyph glyph-name="uni1EE1" unicode="&#x1ee1;" 
d="M35 0zM626 686v-54q0 -72 -37 -120t-109 -68q41 -67 41 -181q0 -140 -61 -207.5t-182 -67.5t-182 67.5t-61 207.5t61 207.5t182 67.5q103 0 160 -47q102 17 121 87h-53v108h120zM430 267q0 105 -36 151.5t-116 46.5t-116 -46.5t-36 -151.5v-8q0 -105 36 -151.5t116 -46.5
t116 46.5t36 151.5v8zM135 693.5q21 29.5 64 29.5q19 0 36.5 -4t42.5 -12q43 -15 70 -15q25 0 28 31h65q0 -45 -21 -74.5t-64 -29.5q-19 0 -36.5 4t-42.5 12q-43 15 -70 15q-25 0 -28 -31h-65q0 45 21 74.5z" />
    <glyph glyph-name="uni1EE2" unicode="&#x1ee2;" horiz-adv-x="778" 
d="M47 0zM747 662.5q-31 -45.5 -91 -68.5q76 -92 76 -251q0 -175 -89.5 -265t-253.5 -90q-163 0 -252.5 89.5t-89.5 265.5t89.5 265.5t252.5 89.5q137 0 220 -61q84 18 102 83h-53v108h120v-54q0 -66 -31 -111.5zM634 343q-1 143 -64 208.5t-181 65.5q-117 0 -180 -65.5
t-64 -208.5v-4q0 -141 63 -205.5t181 -64.5q119 0 182 64.5t63 205.5v4zM345 -78h87v-95h-87v95z" />
    <glyph glyph-name="uni1EE3" unicode="&#x1ee3;" 
d="M35 0zM626 686v-54q0 -72 -37 -120t-109 -68q41 -67 41 -181q0 -140 -61 -207.5t-182 -67.5t-182 67.5t-61 207.5t61 207.5t182 67.5q103 0 160 -47q102 17 121 87h-53v108h120zM430 267q0 105 -36 151.5t-116 46.5t-116 -46.5t-36 -151.5v-8q0 -105 36 -151.5t116 -46.5
t116 46.5t36 151.5v8zM234 -78h87v-95h-87v95z" />
    <glyph glyph-name="uni1EE4" unicode="&#x1ee4;" horiz-adv-x="722" 
d="M79 0zM152 53q-73 65 -73 200v433h95v-438q0 -88 48.5 -133.5t137.5 -45.5q90 0 139 46t49 133v438h95v-433q0 -135 -73 -200t-210 -65q-135 0 -208 65zM317 -78h87v-95h-87v95z" />
    <glyph glyph-name="uni1EE5" unicode="&#x1ee5;" 
d="M64 0zM106.5 30.5q-42.5 42.5 -42.5 136.5v359h88v-353q0 -63 28 -87.5t81 -24.5q38 0 70 18.5t51 53.5t19 82v311h88v-526h-67l-10 71h-7q-58 -83 -177 -83q-79 0 -121.5 42.5zM234 -78h87v-95h-87v95z" />
    <glyph glyph-name="uni1EE6" unicode="&#x1ee6;" horiz-adv-x="722" 
d="M79 0zM152 53q-73 65 -73 200v433h95v-438q0 -88 48.5 -133.5t137.5 -45.5q90 0 139 46t49 133v438h95v-433q0 -135 -73 -200t-210 -65q-135 0 -208 65zM333 797h13q29 0 29 18q0 10 -7.5 14t-23.5 4h-60v39q34 8 72 8q37 0 64 -13.5t27 -46.5q0 -25 -16.5 -39.5
t-41.5 -16.5v-28h-56v61z" />
    <glyph glyph-name="uni1EE7" unicode="&#x1ee7;" 
d="M64 0zM106.5 30.5q-42.5 42.5 -42.5 136.5v359h88v-353q0 -63 28 -87.5t81 -24.5q38 0 70 18.5t51 53.5t19 82v311h88v-526h-67l-10 71h-7q-58 -83 -177 -83q-79 0 -121.5 42.5zM249 652h13q29 0 29 18q0 10 -7.5 14t-23.5 4h-60v39q34 8 72 8q37 0 64 -13.5t27 -46.5
q0 -25 -16.5 -39.5t-41.5 -16.5v-28h-56v61z" />
    <glyph glyph-name="uni1EE8" unicode="&#x1ee8;" horiz-adv-x="722" 
d="M79 0zM762 868v-54q0 -65 -30 -110.5t-89 -68.5v-382q0 -135 -73 -200t-210 -65q-135 0 -208 65t-73 200v433h95v-438q0 -88 48.5 -133.5t137.5 -45.5q90 0 139 46t49 133v438h76q56 23 71 74h-53v108h120zM409 868h96l1 -3l-108 -129h-75z" />
    <glyph glyph-name="uni1EE9" unicode="&#x1ee9;" 
d="M64 0zM606 723v-54q0 -64 -29.5 -109.5t-87.5 -68.5v-491h-67l-10 71h-7q-58 -83 -177 -83q-79 0 -121.5 42.5t-42.5 136.5v359h88v-353q0 -63 28 -87.5t81 -24.5q38 0 70 18.5t51 53.5t19 82v311h3q57 7 91 28.5t44 60.5h-53v108h120zM325 723h96l1 -3l-108 -129h-75z
" />
    <glyph glyph-name="uni1EEA" unicode="&#x1eea;" horiz-adv-x="722" 
d="M79 0zM762 868v-54q0 -65 -30 -110.5t-89 -68.5v-382q0 -135 -73 -200t-210 -65q-135 0 -208 65t-73 200v433h95v-438q0 -88 48.5 -133.5t137.5 -45.5q90 0 139 46t49 133v438h76q56 23 71 74h-53v108h120zM215 865l1 3h96l86 -132h-75z" />
    <glyph glyph-name="uni1EEB" unicode="&#x1eeb;" 
d="M64 0zM606 723v-54q0 -64 -29.5 -109.5t-87.5 -68.5v-491h-67l-10 71h-7q-58 -83 -177 -83q-79 0 -121.5 42.5t-42.5 136.5v359h88v-353q0 -63 28 -87.5t81 -24.5q38 0 70 18.5t51 53.5t19 82v311h3q57 7 91 28.5t44 60.5h-53v108h120zM131 720l1 3h96l86 -132h-75z" />
    <glyph glyph-name="uni1EEC" unicode="&#x1eec;" horiz-adv-x="722" 
d="M79 0zM762 868v-54q0 -65 -30 -110.5t-89 -68.5v-382q0 -135 -73 -200t-210 -65q-135 0 -208 65t-73 200v433h95v-438q0 -88 48.5 -133.5t137.5 -45.5q90 0 139 46t49 133v438h76q56 23 71 74h-53v108h120zM333 797h13q29 0 29 18q0 10 -7.5 14t-23.5 4h-60v39q34 8 72 8
q37 0 64 -13.5t27 -46.5q0 -25 -16.5 -39.5t-41.5 -16.5v-28h-56v61z" />
    <glyph glyph-name="uni1EED" unicode="&#x1eed;" 
d="M64 0zM606 723v-54q0 -64 -29.5 -109.5t-87.5 -68.5v-491h-67l-10 71h-7q-58 -83 -177 -83q-79 0 -121.5 42.5t-42.5 136.5v359h88v-353q0 -63 28 -87.5t81 -24.5q38 0 70 18.5t51 53.5t19 82v311h3q57 7 91 28.5t44 60.5h-53v108h120zM249 652h13q29 0 29 18
q0 10 -7.5 14t-23.5 4h-60v39q34 8 72 8q37 0 64 -13.5t27 -46.5q0 -25 -16.5 -39.5t-41.5 -16.5v-28h-56v61z" />
    <glyph glyph-name="uni1EEE" unicode="&#x1eee;" horiz-adv-x="722" 
d="M79 0zM762 868v-54q0 -65 -30 -110.5t-89 -68.5v-382q0 -135 -73 -200t-210 -65q-135 0 -208 65t-73 200v433h95v-438q0 -88 48.5 -133.5t137.5 -45.5q90 0 139 46t49 133v438h76q56 23 71 74h-53v108h120zM218 838.5q21 29.5 64 29.5q19 0 36.5 -4t42.5 -12
q43 -15 70 -15q25 0 28 31h65q0 -45 -21 -74.5t-64 -29.5q-19 0 -36.5 4t-42.5 12q-43 15 -70 15q-25 0 -28 -31h-65q0 45 21 74.5z" />
    <glyph glyph-name="uni1EEF" unicode="&#x1eef;" 
d="M64 0zM606 723v-54q0 -64 -29.5 -109.5t-87.5 -68.5v-491h-67l-10 71h-7q-58 -83 -177 -83q-79 0 -121.5 42.5t-42.5 136.5v359h88v-353q0 -63 28 -87.5t81 -24.5q38 0 70 18.5t51 53.5t19 82v311h3q57 7 91 28.5t44 60.5h-53v108h120zM134 693.5q21 29.5 64 29.5
q19 0 36.5 -4t42.5 -12q43 -15 70 -15q25 0 28 31h65q0 -45 -21 -74.5t-64 -29.5q-19 0 -36.5 4t-42.5 12q-43 15 -70 15q-25 0 -28 -31h-65q0 45 21 74.5z" />
    <glyph glyph-name="uni1EF0" unicode="&#x1ef0;" horiz-adv-x="722" 
d="M79 0zM762 868v-54q0 -65 -30 -110.5t-89 -68.5v-382q0 -135 -73 -200t-210 -65q-135 0 -208 65t-73 200v433h95v-438q0 -88 48.5 -133.5t137.5 -45.5q90 0 139 46t49 133v438h76q56 23 71 74h-53v108h120zM317 -78h87v-95h-87v95z" />
    <glyph glyph-name="uni1EF1" unicode="&#x1ef1;" 
d="M64 0zM606 723v-54q0 -64 -29.5 -109.5t-87.5 -68.5v-491h-67l-10 71h-7q-58 -83 -177 -83q-79 0 -121.5 42.5t-42.5 136.5v359h88v-353q0 -63 28 -87.5t81 -24.5q38 0 70 18.5t51 53.5t19 82v311h3q57 7 91 28.5t44 60.5h-53v108h120zM234 -78h87v-95h-87v95z" />
    <glyph glyph-name="Ygrave" unicode="&#x1ef2;" horiz-adv-x="667" 
d="M16 0zM287 284l-271 402h115l204 -314h5l203 314h109l-270 -402v-284h-95v284zM188 865l1 3h96l86 -132h-75z" />
    <glyph glyph-name="ygrave" unicode="&#x1ef3;" horiz-adv-x="500" 
d="M13 0zM47 -174v57h35q102 0 134 117l-203 526h93l98 -263q14 -37 32.5 -92.5t24.5 -72.5h5q5 17 18.5 64t30.5 101l84 263h88l-173 -499q-35 -100 -79.5 -154.5t-117.5 -54.5q-44 0 -70 8zM104 720l1 3h96l86 -132h-75z" />
    <glyph glyph-name="uni1EF4" unicode="&#x1ef4;" horiz-adv-x="667" 
d="M16 0zM287 284l-271 402h115l204 -314h5l203 314h109l-270 -402v-284h-95v284zM290 -78h87v-95h-87v95z" />
    <glyph glyph-name="uni1EF5" unicode="&#x1ef5;" horiz-adv-x="500" 
d="M13 0zM47 -174v57h35q102 0 134 117l-203 526h93l98 -263q14 -37 32.5 -92.5t24.5 -72.5h5q5 17 18.5 64t30.5 101l84 263h88l-173 -499q-35 -100 -79.5 -154.5t-117.5 -54.5q-44 0 -70 8zM316 -78h87v-95h-87v95z" />
    <glyph glyph-name="uni1EF6" unicode="&#x1ef6;" horiz-adv-x="667" 
d="M16 0zM287 284l-271 402h115l204 -314h5l203 314h109l-270 -402v-284h-95v284zM306 797h13q29 0 29 18q0 10 -7.5 14t-23.5 4h-60v39q34 8 72 8q37 0 64 -13.5t27 -46.5q0 -25 -16.5 -39.5t-41.5 -16.5v-28h-56v61z" />
    <glyph glyph-name="uni1EF7" unicode="&#x1ef7;" horiz-adv-x="500" 
d="M13 0zM47 -174v57h35q102 0 134 117l-203 526h93l98 -263q14 -37 32.5 -92.5t24.5 -72.5h5q5 17 18.5 64t30.5 101l84 263h88l-173 -499q-35 -100 -79.5 -154.5t-117.5 -54.5q-44 0 -70 8zM222 652h13q29 0 29 18q0 10 -7.5 14t-23.5 4h-60v39q34 8 72 8q37 0 64 -13.5
t27 -46.5q0 -25 -16.5 -39.5t-41.5 -16.5v-28h-56v61z" />
    <glyph glyph-name="uni1EF8" unicode="&#x1ef8;" horiz-adv-x="667" 
d="M16 0zM287 284l-271 402h115l204 -314h5l203 314h109l-270 -402v-284h-95v284zM191 838.5q21 29.5 64 29.5q19 0 36.5 -4t42.5 -12q43 -15 70 -15q25 0 28 31h65q0 -45 -21 -74.5t-64 -29.5q-19 0 -36.5 4t-42.5 12q-43 15 -70 15q-25 0 -28 -31h-65q0 45 21 74.5z" />
    <glyph glyph-name="uni1EF9" unicode="&#x1ef9;" horiz-adv-x="500" 
d="M13 0zM47 -174v57h35q102 0 134 117l-203 526h93l98 -263q14 -37 32.5 -92.5t24.5 -72.5h5q5 17 18.5 64t30.5 101l84 263h88l-173 -499q-35 -100 -79.5 -154.5t-117.5 -54.5q-44 0 -70 8zM107 693.5q21 29.5 64 29.5q19 0 36.5 -4t42.5 -12q43 -15 70 -15q25 0 28 31h65
q0 -45 -21 -74.5t-64 -29.5q-19 0 -36.5 4t-42.5 12q-43 15 -70 15q-25 0 -28 -31h-65q0 45 21 74.5z" />
    <glyph glyph-name="endash" unicode="&#x2013;" 
d="M0 308h556v-75h-556v75z" />
    <glyph glyph-name="emdash" unicode="&#x2014;" horiz-adv-x="1000" 
d="M0 308h1000v-75h-1000v75z" />
    <glyph glyph-name="uni2015" unicode="&#x2015;" horiz-adv-x="1000" 
d="M32 308h937v-75h-937v75z" />
    <glyph glyph-name="underscoredbl" unicode="&#x2017;" horiz-adv-x="552" 
d="M0 -71h551v-53h-551v53zM0 -164h551v-53h-551v53z" />
    <glyph glyph-name="quoteleft" unicode="&#x2018;" horiz-adv-x="222" 
d="M66 543l48 143h52l-40 -134h40v-108h-100v99z" />
    <glyph glyph-name="quoteright" unicode="&#x2019;" horiz-adv-x="222" 
d="M96 578h-40v108h100v-99l-48 -143h-52z" />
    <glyph glyph-name="quotesinglbase" unicode="&#x201a;" horiz-adv-x="222" 
d="M101 0h-40v108h100v-99l-48 -143h-52z" />
    <glyph glyph-name="quotereversed" unicode="&#x201b;" horiz-adv-x="222" 
d="M67 587v99h100v-108h-40l40 -124h-52z" />
    <glyph glyph-name="quotedblleft" unicode="&#x201c;" horiz-adv-x="333" 
d="M39 543l48 143h52l-40 -134h40v-108h-100v99zM191 543l48 143h52l-40 -134h40v-108h-100v99z" />
    <glyph glyph-name="quotedblright" unicode="&#x201d;" horiz-adv-x="333" 
d="M82 578h-40v108h100v-99l-48 -143h-52zM234 578h-40v108h100v-99l-48 -143h-52z" />
    <glyph glyph-name="quotedblbase" unicode="&#x201e;" horiz-adv-x="333" 
d="M82 0h-40v108h100v-99l-48 -143h-52zM234 0h-40v108h100v-99l-48 -143h-52z" />
    <glyph glyph-name="dagger" unicode="&#x2020;" 
d="M250 431l-205 -18v93l205 -17l-17 197h88l-17 -197l206 17v-93l-206 18l20 -601h-94z" />
    <glyph glyph-name="daggerdbl" unicode="&#x2021;" 
d="M250 27l-205 -17v93l205 -18l-20 175l20 171l-205 -18v93l205 -17l-17 197h88l-17 -197l206 17v-93l-206 18l20 -171l-20 -175l206 18v-93l-206 17l17 -197h-88z" />
    <glyph glyph-name="bullet" unicode="&#x2022;" horiz-adv-x="350" 
d="M88 256q-36 36 -36 87t36 87.5t87 36.5q33 0 61.5 -17t45.5 -45.5t17 -61.5q0 -51 -36.5 -87t-87.5 -36t-87 36z" />
    <glyph glyph-name="ellipsis" unicode="&#x2026;" horiz-adv-x="1000" 
d="M117 108h100v-108h-100v108zM450 108h100v-108h-100v108zM782 108h100v-108h-100v108z" />
    <glyph glyph-name="perthousand" unicode="&#x2030;" horiz-adv-x="1000" 
d="M53.5 377.5q-35.5 40.5 -35.5 139.5q0 100 35.5 140.5t106.5 40.5t106 -40.5t35 -140.5t-35 -140t-106 -40t-106.5 40.5zM492 686h65l-375 -686h-64zM211.5 424.5q13.5 28.5 13.5 88.5v8q0 61 -13.5 89.5t-51.5 28.5t-51.5 -28.5t-13.5 -89.5v-8q0 -60 13.5 -88.5
t51.5 -28.5t51.5 28.5zM407.5 26.5q-35.5 40.5 -35.5 139.5q0 100 35.5 140.5t106.5 40.5t106 -40.5t35 -140.5t-35 -140t-106 -40t-106.5 40.5zM734.5 26.5q-35.5 40.5 -35.5 139.5q0 100 35.5 140.5t106.5 40.5t106 -40.5t35 -140.5t-35 -140t-106 -40t-106.5 40.5z
M565.5 73.5q13.5 28.5 13.5 88.5v8q0 61 -13.5 89.5t-51.5 28.5t-51.5 -28.5t-13.5 -89.5v-8q0 -60 13.5 -88.5t51.5 -28.5t51.5 28.5zM892.5 73.5q13.5 28.5 13.5 88.5v8q0 61 -13.5 89.5t-51.5 28.5t-51.5 -28.5t-13.5 -89.5v-8q0 -60 13.5 -88.5t51.5 -28.5t51.5 28.5z
" />
    <glyph glyph-name="minute" unicode="&#x2032;" horiz-adv-x="187" 
d="M77 686h100l1 -3l-52 -168h-77z" />
    <glyph glyph-name="second" unicode="&#x2033;" horiz-adv-x="354" 
d="M77 686h100l1 -3l-52 -168h-77zM219 686h100l1 -3l-52 -168h-77z" />
    <glyph glyph-name="guilsinglleft" unicode="&#x2039;" horiz-adv-x="333" 
d="M55 326l157 200h71l-129 -200l129 -200h-71z" />
    <glyph glyph-name="guilsinglright" unicode="&#x203a;" horiz-adv-x="333" 
d="M179 326l-129 200h71l157 -200l-157 -200h-71z" />
    <glyph glyph-name="exclamdbl" unicode="&#x203c;" horiz-adv-x="500" 
d="M83 0zM303 686h114l-26 -515h-62zM310 108h100v-108h-100v108zM83 686h114l-26 -515h-62zM90 108h100v-108h-100v108z" />
    <glyph glyph-name="uni203E" unicode="&#x203e;" horiz-adv-x="333" 
d="M-15 858h364v-68h-364v68z" />
    <glyph glyph-name="fraction" unicode="&#x2044;" horiz-adv-x="167" 
d="M320 698h72l-546 -710h-72z" />
    <glyph glyph-name="uni207F" unicode="&#x207f;" horiz-adv-x="365" 
d="M39 727h55l7 -48h5q36 56 110 56q111 0 111 -121v-244h-69v239q0 41 -16.5 57.5t-47.5 16.5q-36 0 -61 -28t-25 -74v-211h-69v357z" />
    <glyph glyph-name="franc" unicode="&#x20a3;" 
d="M79 686h348v-75h-258v-226h131v79h67l10 -79h6q33 91 114 91q18 0 31 -3.5t16 -4.5v-85h-37q-52 0 -85.5 -32.5t-33.5 -101.5v-249h-88v312h-131v-312h-90v686z" />
    <glyph glyph-name="lira" unicode="&#x20a4;" 
d="M35 79h76v124h-90v72h90v76h-90v72h90v76q0 98 52 148.5t148 50.5q97 0 148.5 -45.5t51.5 -148.5v-13h-88v16q0 60 -29 89t-83 29q-57 0 -84.5 -26.5t-27.5 -83.5v-92h165v-72h-166v-76h166v-72h-166l-12 -124h325v-79h-476v79z" />
    <glyph glyph-name="peseta" unicode="&#x20a7;" horiz-adv-x="1094" 
d="M546 21q-25 32 -25 79v353h-33q-8 -87 -64.5 -138.5t-147.5 -51.5h-102v-263h-95v686h197q88 0 141.5 -43t66.5 -117h38l19 146h68v-146h176q38 12 84 12q81 0 127 -41.5t46 -102.5l-1 -19h-86v9q0 35 -23 58t-73 23t-69 -21.5t-19 -49.5q0 -34 27.5 -49.5t85.5 -32.5
q54 -16 88.5 -31.5t58.5 -47t24 -83.5q0 -81 -53 -121.5t-141 -40.5q-61 0 -102.5 17.5t-63.5 48.5v-51q-13 -6 -32.5 -10t-37.5 -4q-54 0 -79 32zM271 346q56 0 89 35t33 95q0 61 -31 94t-91 33h-97v-257h97zM936 80.5q28 20.5 28 57.5q0 29 -16.5 47.5t-41 29t-66.5 22.5
q-51 15 -83 30t-54.5 44.5t-22.5 76.5q0 35 14 65h-85v-345q0 -47 44 -47h38q-23 35 -23 81q0 12 0.5 16.5t0.5 5.5h84v-10q0 -47 31.5 -70.5t81.5 -23.5q42 0 70 20.5z" />
    <glyph glyph-name="Euro" unicode="&#x20ac;" 
d="M211.5 54.5q-88.5 66.5 -114.5 188.5h-78v65h69q-1 11 -1 35q0 23 1 35h-69v65h78q26 122 114.5 188.5t227.5 66.5q43 0 82 -10v-71q-35 8 -68 8q-97 0 -167 -46t-93 -136h257v-65h-268q-1 -12 -1 -35q0 -24 1 -35h268v-65h-257q23 -90 93 -136t167 -46q33 0 68 8v-71
q-45 -10 -82 -10q-139 0 -227.5 66.5z" />
    <glyph glyph-name="uni20B2" unicode="&#x20b2;" horiz-adv-x="590" 
d="M344 337h186v-257h-74l-7 46q-46 -54 -144 -58v-117h-51v119q-98 11 -151 80t-53 194q0 122 51.5 190t152.5 81v108h51v-105q101 0 163 -50t62 -146h-94q0 58 -34.5 86.5t-94.5 28.5h-2v-388q42 0 71 14t44 36t15 45v10h-91v83zM172.5 209.5q26.5 -44.5 81.5 -55.5v378
q-54 -13 -81 -57.5t-27 -128.5v-8q0 -84 26.5 -128.5z" />
    <glyph glyph-name="uni2105" unicode="&#x2105;" horiz-adv-x="885" 
d="M84.5 357.5q-37.5 46.5 -37.5 146.5t38.5 147t118.5 47q72 0 105.5 -39.5t33.5 -116.5h-83q0 48 -12.5 69.5t-43.5 21.5q-39 0 -56 -27t-17 -98v-8q0 -71 17 -98t56 -27q31 0 45.5 23t14.5 68h79q0 -68 -34 -111.5t-105 -43.5q-82 0 -119.5 46.5zM646 698h74l-496 -710
h-75zM556.5 35.5q-40.5 47.5 -40.5 146.5t40.5 146.5t120.5 47.5t120.5 -47.5t40.5 -146.5t-40.5 -146.5t-120.5 -47.5t-120.5 47.5zM737 80q19 27 19 98v8q0 71 -19 98.5t-60 27.5t-59.5 -27.5t-18.5 -98.5v-8q0 -71 18.5 -98t59.5 -27t60 27z" />
    <glyph glyph-name="uni2113" unicode="&#x2113;" horiz-adv-x="323" 
d="M154 91.5q24 -34.5 63 -34.5q37 0 69 30v-73q-38 -26 -82 -26q-73 0 -106.5 49.5t-35.5 130.5v15l-34 -33v70q21 21 33 35v253q0 119 38.5 173t94.5 54q51 0 77.5 -42t26.5 -111q0 -160 -168 -346v-38q0 -72 24 -106.5zM130 318q112 149 112 265q0 88 -47 88
q-27 0 -46 -39t-19 -124v-190z" />
    <glyph glyph-name="uni2116" unicode="&#x2116;" horiz-adv-x="1073" 
d="M741 352q-40 48 -40 149t40 149t120 48q160 0 160 -197t-160 -197q-80 0 -120 48zM79 686h85l336 -468l30 -42l4 1v66v443h89v-686h-81l-340 477l-30 42l-4 -1v-59v-459h-89v686zM918 398.5q18 28.5 18 97.5v10q0 69 -18 97.5t-57 28.5t-57 -28.5t-18 -97.5v-10
q0 -69 18 -97.5t57 -28.5t57 28.5zM715 264h293v-66h-293v66z" />
    <glyph glyph-name="trademark" unicode="&#x2122;" horiz-adv-x="1000" 
d="M222 624h-142v63h350v-63h-141v-341h-67v341zM485 687h106l105 -316h5l105 316h104v-405h-67v329h-5l-112 -329h-64l-111 329h-5v-329h-61v405z" />
    <glyph glyph-name="uni2126" unicode="&#x2126;" horiz-adv-x="748" 
d="M37 0zM711 84v-84h-308v71q67 14 109.5 41t66.5 81.5t24 146.5q-1 147 -60 212t-169 65q-111 0 -170 -63.5t-59 -205.5v-5q0 -93 23.5 -148.5t66 -82.5t109.5 -41v-71h-307v84h40q9 0 41 -2q30 -2 50 -2q-121 93 -121 263q0 175 86 265t241 90t241 -90t86 -265
q0 -170 -123 -263q12 0 34 2q36 2 59 2h40z" />
    <glyph glyph-name="estimated" unicode="&#x212e;" horiz-adv-x="600" 
d="M165.5 23.5q-58.5 35.5 -89.5 97.5t-31 142t31 142t89.5 97.5t136.5 35.5t136 -36.5t89.5 -101.5t31.5 -147v-5h-406v-165q58 -53 149 -53q65 0 114.5 29t75.5 80l34 -21q-32 -61 -89.5 -95.5t-134.5 -34.5q-78 0 -136.5 35.5zM451 290v151q-60 55 -149 55
q-90 0 -149 -54v-152h298z" />
    <glyph glyph-name="uni2153" unicode="&#x2153;" horiz-adv-x="834" 
d="M654 698h72l-546 -710h-72zM51 384h88v225h-88v40q27 3 62 13.5t59 23.5h30v-302h80v-56h-231v56zM567.5 18q-34.5 30 -34.5 82v13h63v-15q0 -27 16.5 -41t47.5 -14t49 13.5t18 41.5q0 50 -69 50h-30v56h32q26 0 43.5 12.5t17.5 36.5q0 25 -16.5 37.5t-41.5 12.5
q-27 0 -43.5 -13t-16.5 -39v-14h-63v19q0 46 34 74t88 28q56 0 89 -27t33 -75q0 -47 -52 -75v-2q60 -26 60 -85q0 -48 -35.5 -77t-92.5 -29q-62 0 -96.5 30z" />
    <glyph glyph-name="uni2154" unicode="&#x2154;" horiz-adv-x="834" 
d="M39 358q0 29 14 52.5t34 41t55 43.5q44 32 59 49q24 24 24 50q0 19 -12.5 33.5t-42.5 14.5q-33 0 -48 -15.5t-15 -40.5v-25h-62q0 2 -1 9t-1 15q0 57 36.5 85t92.5 28q53 0 85 -26t32 -79q0 -42 -28.5 -74.5t-80.5 -70.5q-5 -4 -21.5 -16t-27 -22.5t-14.5 -19.5h174v-56
h-252v24zM654 698h72l-546 -710h-72zM567.5 18q-34.5 30 -34.5 82v13h63v-15q0 -27 16.5 -41t47.5 -14t49 13.5t18 41.5q0 50 -69 50h-30v56h32q26 0 43.5 12.5t17.5 36.5q0 25 -16.5 37.5t-41.5 12.5q-27 0 -43.5 -13t-16.5 -39v-14h-63v19q0 46 34 74t88 28q56 0 89 -27
t33 -75q0 -47 -52 -75v-2q60 -26 60 -85q0 -48 -35.5 -77t-92.5 -29q-62 0 -96.5 30z" />
    <glyph glyph-name="oneeighth" unicode="&#x215b;" horiz-adv-x="834" 
d="M654 698h72l-546 -710h-72zM51 384h88v225h-88v40q27 3 62 13.5t59 23.5h30v-302h80v-56h-231v56zM566.5 18q-31.5 30 -31.5 79q0 57 53 82q-21 14 -33 33.5t-12 41.5q0 46 31 75t88 29t88 -29t31 -75q0 -21 -12 -41t-32 -34q25 -13 39 -35t14 -47q0 -49 -32 -79t-96 -30
t-95.5 30zM703 218q15 13 15 36t-15 36t-41 13t-41 -13t-15 -36t15 -36t41 -13t41 13zM709.5 57q16.5 14 16.5 40q0 25 -16.5 38.5t-47.5 13.5t-47.5 -13.5t-16.5 -38.5q0 -26 16.5 -40t47.5 -14t47.5 14z" />
    <glyph glyph-name="threeeighths" unicode="&#x215c;" horiz-adv-x="834" 
d="M72.5 358q-34.5 30 -34.5 82v13h63v-15q0 -27 16.5 -41t47.5 -14t49 13.5t18 41.5q0 50 -69 50h-30v56h32q26 0 43.5 12.5t17.5 36.5q0 25 -16.5 37.5t-41.5 12.5q-27 0 -43.5 -13t-16.5 -39v-14h-63v19q0 46 34 74t88 28q56 0 89 -27t33 -75q0 -47 -52 -75v-2
q60 -26 60 -85q0 -48 -35.5 -77t-92.5 -29q-62 0 -96.5 30zM654 698h72l-546 -710h-72zM566.5 18q-31.5 30 -31.5 79q0 57 53 82q-21 14 -33 33.5t-12 41.5q0 46 31 75t88 29t88 -29t31 -75q0 -21 -12 -41t-32 -34q25 -13 39 -35t14 -47q0 -49 -32 -79t-96 -30t-95.5 30z
M703 218q15 13 15 36t-15 36t-41 13t-41 -13t-15 -36t15 -36t41 -13t41 13zM709.5 57q16.5 14 16.5 40q0 25 -16.5 38.5t-47.5 13.5t-47.5 -13.5t-16.5 -38.5q0 -26 16.5 -40t47.5 -14t47.5 14z" />
    <glyph glyph-name="fiveeighths" unicode="&#x215d;" horiz-adv-x="834" 
d="M654 698h72l-546 -710h-72zM75 354.5q-35 32.5 -35 87.5h63q0 -30 18.5 -47.5t47.5 -17.5t46 18t17 53q0 32 -18.5 47.5t-50.5 15.5q-33 0 -57 -20l-54 9l15 186h211v-56h-158l-6 -79q28 16 68 16q50 0 82 -30.5t32 -88.5q0 -60 -34 -93t-93 -33t-94 32.5zM566.5 18
q-31.5 30 -31.5 79q0 57 53 82q-21 14 -33 33.5t-12 41.5q0 46 31 75t88 29t88 -29t31 -75q0 -21 -12 -41t-32 -34q25 -13 39 -35t14 -47q0 -49 -32 -79t-96 -30t-95.5 30zM703 218q15 13 15 36t-15 36t-41 13t-41 -13t-15 -36t15 -36t41 -13t41 13zM709.5 57
q16.5 14 16.5 40q0 25 -16.5 38.5t-47.5 13.5t-47.5 -13.5t-16.5 -38.5q0 -26 16.5 -40t47.5 -14t47.5 14z" />
    <glyph glyph-name="seveneighths" unicode="&#x215e;" horiz-adv-x="834" 
d="M637 698h72l-546 -710h-72zM152.5 486.5q35.5 74.5 90.5 143.5h-179v56h260v-42q-58 -66 -98.5 -139t-40.5 -142l1 -35h-69q0 84 35.5 158.5zM549.5 18q-31.5 30 -31.5 79q0 57 53 82q-21 14 -33 33.5t-12 41.5q0 46 31 75t88 29t88 -29t31 -75q0 -21 -12 -41t-32 -34
q25 -13 39 -35t14 -47q0 -49 -32 -79t-96 -30t-95.5 30zM686 218q15 13 15 36t-15 36t-41 13t-41 -13t-15 -36t15 -36t41 -13t41 13zM692.5 57q16.5 14 16.5 40q0 25 -16.5 38.5t-47.5 13.5t-47.5 -13.5t-16.5 -38.5q0 -26 16.5 -40t47.5 -14t47.5 14z" />
    <glyph glyph-name="arrowleft" unicode="&#x2190;" horiz-adv-x="1000" 
d="M42 242v21l197 163h42l-58 -137h737v-73h-737l58 -137h-42z" />
    <glyph glyph-name="arrowup" unicode="&#x2191;" horiz-adv-x="500" 
d="M214 529l-137 -58v42l163 197h21l163 -197v-42l-137 58v-737h-73v737z" />
    <glyph glyph-name="arrowright" unicode="&#x2192;" horiz-adv-x="1000" 
d="M778 216h-737v73h737l-58 137h42l197 -163v-21l-197 -163h-42z" />
    <glyph glyph-name="arrowdown" unicode="&#x2193;" horiz-adv-x="500" 
d="M77 -11v42l137 -58v737h73v-737l137 58v-42l-163 -197h-21z" />
    <glyph glyph-name="arrowboth" unicode="&#x2194;" horiz-adv-x="1000" 
d="M42 242v21l197 163h42l-53 -137h550l-58 137h42l197 -163v-21l-197 -163h-42l58 137h-550l53 -137h-42z" />
    <glyph glyph-name="arrowupdn" unicode="&#x2195;" horiz-adv-x="500" 
d="M76 -9v42l137 -58v550l-137 -53v42l163 197h21l163 -197v-42l-137 53v-550l137 58v-42l-163 -197h-21z" />
    <glyph glyph-name="arrowupdnbse" unicode="&#x21a8;" horiz-adv-x="500" 
d="M76 61v42l137 -58v480l-137 -53v42l163 197h21l163 -197v-42l-137 53v-480l137 58v-42l-163 -197h-21zM75 -185h350v-48h-350v48z" />
    <glyph glyph-name="partialdiff" unicode="&#x2202;" horiz-adv-x="494" 
d="M123.5 17q-38.5 29 -58 78.5t-19.5 108.5q0 73 26 129t69.5 86t92.5 30q46 0 77 -21.5t44 -47.5h4q2 6 2 34q0 70 -19.5 128t-54 91t-77.5 33q-56 0 -103 -34v74q53 29 114 29q60 0 110.5 -37.5t82 -116.5t31.5 -198q0 -187 -59.5 -291t-169.5 -104q-54 0 -92.5 29z
M310.5 131q34.5 70 41.5 168q-10 32 -37.5 57.5t-66.5 25.5q-31 0 -57 -25t-40.5 -66.5t-14.5 -89.5q0 -64 23 -102t64 -38q53 0 87.5 70z" />
    <glyph glyph-name="uni2206" unicode="&#x2206;" horiz-adv-x="612" 
d="M319 698l280 -698h-586zM478 54l-184 448l-198 -448h382z" />
    <glyph glyph-name="product" unicode="&#x220f;" horiz-adv-x="823" 
d="M140 643h-99v80h741v-80h-101v-771h-94v771h-352v-771h-95v771z" />
    <glyph glyph-name="summation" unicode="&#x2211;" horiz-adv-x="713" 
d="M59 -65l318 364l-308 357v67h602v-78h-470v-4l287 -326l-310 -351v-4h512v-88h-631v63z" />
    <glyph glyph-name="minus" unicode="&#x2212;" horiz-adv-x="584" 
d="M56 297h472v-83h-472v83z" />
    <glyph glyph-name="uni2215" unicode="&#x2215;" horiz-adv-x="167" 
d="M320 698h72l-546 -710h-72z" />
    <glyph glyph-name="uni2219" unicode="&#x2219;" horiz-adv-x="350" 
d="M124.5 211.5q-18.5 18.5 -18.5 43.5q0 26 18.5 44t43.5 18q26 0 44 -18t18 -44q0 -25 -18 -43.5t-44 -18.5q-25 0 -43.5 18.5z" />
    <glyph glyph-name="radical" unicode="&#x221a;" horiz-adv-x="549" 
d="M127 293l-77 -30l-20 60l162 68l127 -347q10 -28 21 -74l137 887h71l-162 -1005h-90z" />
    <glyph glyph-name="infinity" unicode="&#x221e;" horiz-adv-x="713" 
d="M87 186q-40 44 -40 111q0 66 40.5 111t107.5 45q47 0 84.5 -25.5t76.5 -71.5q37 45 75 71t86 26q67 0 107.5 -45t40.5 -111q0 -67 -40 -111t-107 -44q-49 0 -87 25.5t-75 70.5q-38 -45 -76 -70.5t-86 -25.5q-67 0 -107 44zM251 235q26 21 58 62q-31 39 -57.5 59.5
t-56.5 20.5t-52 -24t-22 -58t21.5 -57.5t51.5 -23.5q31 0 57 21zM569.5 237.5q21.5 23.5 21.5 57.5t-22 58t-52 24q-31 0 -57 -20t-58 -60q32 -41 58.5 -62t57.5 -21q30 0 51.5 23.5z" />
    <glyph glyph-name="orthogonal" unicode="&#x221f;" horiz-adv-x="979" 
d="M177 625h74v-559h551v-66h-625v625z" />
    <glyph glyph-name="intersection" unicode="&#x2229;" horiz-adv-x="719" 
d="M94 410q0 72 35.5 133t96.5 97t133 36t133 -36t97 -97t36 -133v-410h-73v411q0 52 -26 96.5t-70.5 70.5t-96.5 26t-96 -26t-70 -70.5t-26 -96.5v-411h-73v410z" />
    <glyph glyph-name="integral" unicode="&#x222b;" horiz-adv-x="274" 
d="M33 -91q85 0 85 58q-4 100 -15.5 392t-11.5 388q0 65 41.5 88.5t116.5 23.5v-49q-87 0 -87 -57q5 -101 16.5 -393.5t11.5 -388.5q0 -65 -41 -88.5t-116 -23.5v50z" />
    <glyph glyph-name="approxequal" unicode="&#x2248;" horiz-adv-x="549" 
d="M38 363q0 3 17.5 21.5t48 34.5t71.5 16q23 0 45.5 -7.5t52.5 -22.5q32 -15 54 -22.5t47 -7.5q36 0 66 16t50.5 35t20.5 21v-92q0 -3 -17.5 -21.5t-48 -34.5t-71.5 -16q-23 0 -45.5 7.5t-52.5 22.5q-32 15 -54 22.5t-47 7.5q-36 0 -66 -16t-50.5 -35t-20.5 -21v92zM38 149
q0 3 17.5 21.5t48 34.5t71.5 16q23 0 45.5 -7.5t52.5 -22.5q32 -15 54 -22.5t47 -7.5q36 0 66 16t50.5 35t20.5 21v-92q0 -3 -17.5 -21.5t-48 -34.5t-71.5 -16q-23 0 -45.5 7.5t-52.5 22.5q-32 15 -54 22.5t-47 7.5q-36 0 -66 -16t-50.5 -35t-20.5 -21v92z" />
    <glyph glyph-name="notequal" unicode="&#x2260;" horiz-adv-x="549" 
d="M162 106h-124v83h168l69 129h-237v84h282l44 82h66l-44 -82h125v-84h-170l-69 -129h239v-83h-283l-43 -81h-66z" />
    <glyph glyph-name="equivalence" unicode="&#x2261;" horiz-adv-x="583" 
d="M57 516h472v-84h-472v84zM57 303h472v-84h-472v84zM57 90h472v-83h-472v83z" />
    <glyph glyph-name="lessequal" unicode="&#x2264;" horiz-adv-x="549" 
d="M38 320v107l473 197v-90l-392 -160l392 -160v-90zM38 83h473v-83h-473v83z" />
    <glyph glyph-name="greaterequal" unicode="&#x2265;" horiz-adv-x="549" 
d="M38 214l392 160l-392 160v90l473 -197v-107l-473 -196v90zM38 83h473v-83h-473v83z" />
    <glyph glyph-name="house" unicode="&#x2302;" horiz-adv-x="604" 
d="M77 310l225 253l225 -253v-310h-450v310zM488 40v253l-186 208l-186 -208v-253h372z" />
    <glyph glyph-name="revlogicalnot" unicode="&#x2310;" horiz-adv-x="584" 
d="M56 453h473v-93h-389v-163h-84v256z" />
    <glyph glyph-name="integraltp" unicode="&#x2320;" horiz-adv-x="604" 
d="M259 747q0 65 41.5 88.5t116.5 23.5v-49q-87 0 -87 -57l17 -1003h-74q-14 880 -14 997z" />
    <glyph glyph-name="integralbt" unicode="&#x2321;" horiz-adv-x="604" 
d="M187 -201q87 0 87 57l-17 1003h74q14 -880 14 -997q0 -65 -41.5 -88.5t-116.5 -23.5v49z" />
    <glyph glyph-name="lozenge" unicode="&#x25ca;" horiz-adv-x="584" 
d="M60 298l179 429h107l178 -429l-178 -430h-107zM434 298l-142 358l-142 -358l142 -359z" />
    <glyph glyph-name="uniA78B" unicode="&#xa78b;" horiz-adv-x="171" 
d="M46 686h100v-99l-52 -379h-48v478z" />
    <glyph glyph-name="uniA78C" unicode="&#xa78c;" horiz-adv-x="156" 
d="M46 723h90v-112l-42 -323h-48v435z" />
    <glyph glyph-name="Iacute_J.loclNLD" horiz-adv-x="778" 
d="M92 0zM92 686h95v-686h-95v686zM187 868h96l1 -3l-108 -129h-75zM358 38q-51 50 -51 145v25h95v-30q0 -54 26 -81.5t75 -27.5q50 0 76 31.5t26 93.5v492h95v-487q0 -105 -51 -158t-146 -53q-94 0 -145 50zM701 868h96l1 -3l-108 -129h-75z" />
    <glyph glyph-name="Y.loclGUA" horiz-adv-x="667" 
d="M146.5 31q-67.5 43 -67.5 129v8h95q0 -47 43 -73t112 -26q81 0 122.5 43t41.5 136v46h-7q-54 -96 -188 -96q-105 0 -162 55t-57 170v263h95v-268q0 -69 35.5 -104t103.5 -35q84 0 132 51.5t48 147.5v208h95v-433q0 -139 -65.5 -202t-195.5 -63q-113 0 -180.5 43z" />
    <glyph glyph-name="Yacute.loclGUA" horiz-adv-x="667" 
d="M79 0zM146.5 31q-67.5 43 -67.5 129v8h95q0 -47 43 -73t112 -26q81 0 122.5 43t41.5 136v46h-7q-54 -96 -188 -96q-105 0 -162 55t-57 170v263h95v-268q0 -69 35.5 -104t103.5 -35q84 0 132 51.5t48 147.5v208h95v-433q0 -139 -65.5 -202t-195.5 -63q-113 0 -180.5 43z
M382 868h96l1 -3l-108 -129h-75z" />
    <glyph glyph-name="Ycircumflex.loclGUA" horiz-adv-x="667" 
d="M79 0zM146.5 31q-67.5 43 -67.5 129v8h95q0 -47 43 -73t112 -26q81 0 122.5 43t41.5 136v46h-7q-54 -96 -188 -96q-105 0 -162 55t-57 170v263h95v-268q0 -69 35.5 -104t103.5 -35q84 0 132 51.5t48 147.5v208h95v-433q0 -139 -65.5 -202t-195.5 -63q-113 0 -180.5 43z
M292 868h84l105 -135h-90l-57 79l-58 -79h-90z" />
    <glyph glyph-name="Ydieresis.loclGUA" horiz-adv-x="667" 
d="M79 0zM146.5 31q-67.5 43 -67.5 129v8h95q0 -47 43 -73t112 -26q81 0 122.5 43t41.5 136v46h-7q-54 -96 -188 -96q-105 0 -162 55t-57 170v263h95v-268q0 -69 35.5 -104t103.5 -35q84 0 132 51.5t48 147.5v208h95v-433q0 -139 -65.5 -202t-195.5 -63q-113 0 -180.5 43z
M197 868h87v-95h-87v95zM384 868h87v-95h-87v95z" />
    <glyph glyph-name="Ygrave.loclGUA" horiz-adv-x="667" 
d="M79 0zM146.5 31q-67.5 43 -67.5 129v8h95q0 -47 43 -73t112 -26q81 0 122.5 43t41.5 136v46h-7q-54 -96 -188 -96q-105 0 -162 55t-57 170v263h95v-268q0 -69 35.5 -104t103.5 -35q84 0 132 51.5t48 147.5v208h95v-433q0 -139 -65.5 -202t-195.5 -63q-113 0 -180.5 43z
M188 865l1 3h96l86 -132h-75z" />
    <glyph glyph-name="uni0232.loclGUA" horiz-adv-x="667" 
d="M79 0zM146.5 31q-67.5 43 -67.5 129v8h95q0 -47 43 -73t112 -26q81 0 122.5 43t41.5 136v46h-7q-54 -96 -188 -96q-105 0 -162 55t-57 170v263h95v-268q0 -69 35.5 -104t103.5 -35q84 0 132 51.5t48 147.5v208h95v-433q0 -139 -65.5 -202t-195.5 -63q-113 0 -180.5 43z
M181 844h305v-72h-305v72z" />
    <glyph glyph-name="uni1EF8.loclGUA" horiz-adv-x="667" 
d="M79 0zM146.5 31q-67.5 43 -67.5 129v8h95q0 -47 43 -73t112 -26q81 0 122.5 43t41.5 136v46h-7q-54 -96 -188 -96q-105 0 -162 55t-57 170v263h95v-268q0 -69 35.5 -104t103.5 -35q84 0 132 51.5t48 147.5v208h95v-433q0 -139 -65.5 -202t-195.5 -63q-113 0 -180.5 43z
M191 838.5q21 29.5 64 29.5q19 0 36.5 -4t42.5 -12q43 -15 70 -15q25 0 28 31h65q0 -45 -21 -74.5t-64 -29.5q-19 0 -36.5 4t-42.5 12q-43 15 -70 15q-25 0 -28 -31h-65q0 45 21 74.5z" />
    <glyph glyph-name="Cacute.loclPLK" horiz-adv-x="722" 
d="M47 0zM131 76.5q-84 88.5 -84 266.5t84 266.5t250 88.5q134 0 214.5 -66.5t80.5 -193.5h-97q0 88 -52.5 133.5t-145.5 45.5q-121 0 -178 -64t-58 -208v-2q0 -145 57 -209.5t179 -64.5q95 0 148.5 45t53.5 132h93q0 -128 -80 -193t-215 -65q-166 0 -250 88.5zM349 868h96
l1 -3l-48 -129h-75z" />
    <glyph glyph-name="Nacute.loclPLK" horiz-adv-x="722" 
d="M79 0zM79 686h85l362 -478l24 -32l4 1v47v462h89v-686h-81l-364 484l-26 35l-4 -1v-47v-471h-89v686zM349 868h96l1 -3l-48 -129h-75z" />
    <glyph glyph-name="Oacute.loclPLK" horiz-adv-x="778" 
d="M47 0zM136.5 77.5q-89.5 89.5 -89.5 265.5t89.5 265.5t252.5 89.5q164 0 253.5 -89.5t89.5 -265.5q0 -175 -89.5 -265t-253.5 -90q-163 0 -252.5 89.5zM571 133.5q63 64.5 63 205.5v4q-1 143 -64 208.5t-181 65.5q-117 0 -180 -65.5t-64 -208.5v-4q0 -141 63 -205.5
t181 -64.5q119 0 182 64.5zM377 868h96l1 -3l-48 -129h-75z" />
    <glyph glyph-name="Sacute.loclPLK" horiz-adv-x="667" 
d="M49 0zM128 38q-79 50 -79 156l1 20h94q0 -1 -1 -7t-1 -14q0 -61 50.5 -92.5t134.5 -31.5q94 0 144 29.5t50 84.5q0 37 -26 61.5t-65.5 38.5t-106.5 31q-83 21 -134 40.5t-87 58t-36 101.5q0 90 75 137t192 47t190 -47.5t73 -145.5v-12h-93v15q0 51 -46.5 80t-120.5 29
q-79 0 -126.5 -24t-47.5 -72q0 -35 25.5 -57t63 -35.5t104.5 -30.5q83 -21 135.5 -41t89 -58.5t36.5 -100.5q0 -110 -76.5 -160t-207.5 -50q-125 0 -204 50zM322 868h96l1 -3l-48 -129h-75z" />
    <glyph glyph-name="Zacute.loclPLK" horiz-adv-x="611" 
d="M23 0zM23 49l412 554h-386v83h531v-49l-413 -554h422v-83h-566v49zM294 868h96l1 -3l-48 -129h-75z" />
    <glyph glyph-name="i.loclTRK" horiz-adv-x="278" 
d="M95 0zM95 526h88v-526h-88v526zM95 723h87v-95h-87v95z" />
    <glyph glyph-name="iacute_j.loclNLD" horiz-adv-x="500" 
d="M85 0zM171 723h96l1 -3l-108 -129h-75zM95 526h88v-526h-88v526zM254 -170v57h44q47 0 47 48v591h88v-587q0 -52 -25.5 -86.5t-84.5 -34.5q-35 0 -69 12zM437 723h96l1 -3l-108 -129h-75z" />
    <glyph glyph-name="y.loclGUA" 
d="M121.5 -144.5q-55.5 37.5 -55.5 109.5v10h86q0 -43 31.5 -64t79.5 -21q138 0 139 169v21h-8q-51 -72 -159 -72q-171 0 -171 179v339h88v-333q0 -61 25 -86.5t69 -25.5q67 0 111 46.5t44 127.5v271h88v-463q0 -245 -223 -245q-89 0 -144.5 37.5z" />
    <glyph glyph-name="yacute.loclGUA" 
d="M64 0zM121.5 -144.5q-55.5 37.5 -55.5 109.5v10h86q0 -43 31.5 -64t79.5 -21q138 0 139 169v21h-8q-51 -72 -159 -72q-171 0 -171 179v339h88v-333q0 -61 25 -86.5t69 -25.5q67 0 111 46.5t44 127.5v271h88v-463q0 -245 -223 -245q-89 0 -144.5 37.5zM326 723h96l1 -3
l-108 -129h-75z" />
    <glyph glyph-name="ycircumflex.loclGUA" 
d="M64 0zM121.5 -144.5q-55.5 37.5 -55.5 109.5v10h86q0 -43 31.5 -64t79.5 -21q138 0 139 169v21h-8q-51 -72 -159 -72q-171 0 -171 179v339h88v-333q0 -61 25 -86.5t69 -25.5q67 0 111 46.5t44 127.5v271h88v-463q0 -245 -223 -245q-89 0 -144.5 37.5zM236 723h84
l105 -135h-90l-57 79l-58 -79h-90z" />
    <glyph glyph-name="ydieresis.loclGUA" 
d="M64 0zM121.5 -144.5q-55.5 37.5 -55.5 109.5v10h86q0 -43 31.5 -64t79.5 -21q138 0 139 169v21h-8q-51 -72 -159 -72q-171 0 -171 179v339h88v-333q0 -61 25 -86.5t69 -25.5q67 0 111 46.5t44 127.5v271h88v-463q0 -245 -223 -245q-89 0 -144.5 37.5zM141 723h87v-95h-87
v95zM328 723h87v-95h-87v95z" />
    <glyph glyph-name="ygrave.loclGUA" 
d="M64 0zM121.5 -144.5q-55.5 37.5 -55.5 109.5v10h86q0 -43 31.5 -64t79.5 -21q138 0 139 169v21h-8q-51 -72 -159 -72q-171 0 -171 179v339h88v-333q0 -61 25 -86.5t69 -25.5q67 0 111 46.5t44 127.5v271h88v-463q0 -245 -223 -245q-89 0 -144.5 37.5zM132 720l1 3h96
l86 -132h-75z" />
    <glyph glyph-name="uni0233.loclGUA" 
d="M64 0zM121.5 -144.5q-55.5 37.5 -55.5 109.5v10h86q0 -43 31.5 -64t79.5 -21q138 0 139 169v21h-8q-51 -72 -159 -72q-171 0 -171 179v339h88v-333q0 -61 25 -86.5t69 -25.5q67 0 111 46.5t44 127.5v271h88v-463q0 -245 -223 -245q-89 0 -144.5 37.5zM125 699h305v-72
h-305v72z" />
    <glyph glyph-name="uni1EF9.loclGUA" 
d="M64 0zM121.5 -144.5q-55.5 37.5 -55.5 109.5v10h86q0 -43 31.5 -64t79.5 -21q138 0 139 169v21h-8q-51 -72 -159 -72q-171 0 -171 179v339h88v-333q0 -61 25 -86.5t69 -25.5q67 0 111 46.5t44 127.5v271h88v-463q0 -245 -223 -245q-89 0 -144.5 37.5zM135 693.5
q21 29.5 64 29.5q19 0 36.5 -4t42.5 -12q43 -15 70 -15q25 0 28 31h65q0 -45 -21 -74.5t-64 -29.5q-19 0 -36.5 4t-42.5 12q-43 15 -70 15q-25 0 -28 -31h-65q0 45 21 74.5z" />
    <glyph glyph-name="cacute.loclPLK" horiz-adv-x="500" 
d="M35 0zM91 54.5q-56 66.5 -56 208.5q0 141 56.5 208t175.5 67q108 0 158 -52t50 -155h-90q0 71 -25.5 102.5t-92.5 31.5q-73 0 -107 -47.5t-34 -154.5v-4q0 -106 33 -152t108 -46q66 0 94.5 33.5t28.5 100.5h85q0 -90 -51 -148.5t-157 -58.5q-120 0 -176 66.5zM238 723h96
l1 -3l-48 -129h-75z" />
    <glyph glyph-name="nacute.loclPLK" 
d="M67 0zM67 526h67l10 -71h7q58 83 177 83q79 0 121.5 -42.5t42.5 -136.5v-359h-88v353q0 63 -28 87.5t-81 24.5q-38 0 -70 -18.5t-51 -53.5t-19 -82v-311h-88v526zM266 723h96l1 -3l-48 -129h-75z" />
    <glyph glyph-name="oacute.loclPLK" 
d="M35 0zM96 55.5q-61 67.5 -61 207.5t61 207.5t182 67.5t182 -67.5t61 -207.5t-61 -207.5t-182 -67.5t-182 67.5zM394 107.5q36 46.5 36 151.5v8q0 105 -36 151.5t-116 46.5t-116 -46.5t-36 -151.5v-8q0 -105 36 -151.5t116 -46.5t116 46.5zM266 723h96l1 -3l-48 -129h-75z
" />
    <glyph glyph-name="sacute.loclPLK" horiz-adv-x="500" 
d="M31 0zM125.5 9.5q-48.5 21.5 -71.5 56.5t-23 76q0 12 0.5 16.5t0.5 5.5h87v-10q0 -47 37 -70.5t96 -23.5q51 0 84.5 20.5t33.5 57.5q0 29 -19 47.5t-47 29t-76 22.5q-58 15 -94.5 30t-62 44.5t-25.5 76.5q0 69 56.5 109.5t152.5 40.5q60 0 104 -19.5t66.5 -52t22.5 -72.5
l-1 -19h-86v9q0 35 -27.5 58t-88.5 23q-60 0 -84 -21.5t-24 -49.5q0 -23 17 -38t42 -24t70 -20q62 -16 101 -31.5t66.5 -47t27.5 -83.5q0 -81 -58.5 -121.5t-155.5 -40.5q-73 0 -121.5 21.5zM238 723h96l1 -3l-48 -129h-75z" />
    <glyph glyph-name="zacute.loclPLK" horiz-adv-x="500" 
d="M24 0zM24 47l305 406h-284v73h413v-46l-306 -407h323v-73h-451v47zM238 723h96l1 -3l-48 -129h-75z" />
    <glyph glyph-name="ampersand.alt" horiz-adv-x="667" 
d="M547 0l-60 66q-42 -38 -96.5 -58.5t-118.5 -20.5q-62 0 -114 23.5t-82.5 67.5t-30.5 104q0 72 40.5 126.5t105.5 85.5q-49 60 -49 134q0 50 23.5 89t64.5 60.5t92 21.5q69 0 115.5 -39.5t46.5 -106.5q0 -70 -44 -115.5t-111 -72.5l157 -173q34 68 34 152h83
q0 -121 -60 -214l118 -130h-114zM256 601q-26 -24 -26 -68q0 -63 45 -110q57 23 89 51t32 72q0 37 -23.5 58t-55.5 21q-35 0 -61 -24zM437 122l-193 213q-51 -23 -80.5 -62.5t-29.5 -88.5q0 -58 41.5 -91t104.5 -33q92 0 157 62z" />
    <glyph glyph-name="acute.loclPLK" horiz-adv-x="333" 
d="M131 723h96l1 -3l-48 -129h-75z" />
    <glyph glyph-name=".ttfautohint" horiz-adv-x="333" 
d="M0 0z" />
    </font>
</defs>
</svg>
